999
dxfrw 0.6.3
  0
SECTION
  2
HEADER
  9
$ACADVER
  1
AC1021
  9
$DWGCODEPAGE
  3
ANSI_1252
  9
$INSBASE
 10
0
 20
0
 30
0
  9
$EXTMIN
 10
-260
 20
30
 30
0
  9
$EXTMAX
 10
70
 20
270
 30
0
  9
$LIMMIN
 10
0
 20
0
  9
$LIMMAX
 10
420
 20
297
  9
$ORTHOMODE
 70
    0
  9
$REGENMODE
 70
    1
  9
$FILLMODE
 70
    1
  9
$QTEXTMODE
 70
    0
  9
$MIRRTEXT
 70
    0
  9
$LTSCALE
 40
1
  9
$ATTMODE
 70
    0
  9
$TEXTSIZE
 40
2.5
  9
$TRACEWID
 40
15.68
  9
$TEXTSTYLE
  7
STANDARD
  9
$CLAYER
  8
0
  9
$CELTYPE
  6
BYLAYER
  9
$CECOLOR
 62
  256
  9
$CELTSCALE
 40
1
  9
$DISPSILH
 70
    0
  9
$DIMSCALE
 40
1
  9
$DIMASZ
 40
2.5
  9
$DIMEXO
 40
0.625
  9
$DIMDLI
 40
3.75
  9
$DIMRND
 40
0
  9
$DIMDLE
 40
0
  9
$DIMEXE
 40
1.25
  9
$DIMTP
 40
0
  9
$DIMTM
 40
0
  9
$DIMTXT
 40
2.5
  9
$DIMCEN
 40
2.5
  9
$DIMTSZ
 40
0
  9
$DIMTOL
 70
    0
  9
$DIMLIM
 70
    0
  9
$DIMTIH
 70
    0
  9
$DIMTOH
 70
    0
  9
$DIMSE1
 70
    0
  9
$DIMSE2
 70
    0
  9
$DIMTAD
 70
    1
  9
$DIMZIN
 70
    1
  9
$DIMBLK
  1

  9
$DIMASO
 70
    1
  9
$DIMSHO
 70
    1
  9
$DIMPOST
  1

  9
$DIMAPOST
  1

  9
$DIMALT
 70
    0
  9
$DIMALTD
 70
    3
  9
$DIMALTF
 40
0.03937
  9
$DIMLFAC
 40
1
  9
$DIMTOFL
 70
    1
  9
$DIMTVP
 40
0
  9
$DIMTIX
 70
    0
  9
$DIMSOXD
 70
    0
  9
$DIMSAH
 70
    0
  9
$DIMBLK1
  1

  9
$DIMBLK2
  1

  9
$DIMSTYLE
  2
Standard
  9
$DIMCLRD
 70
    0
  9
$DIMCLRE
 70
    0
  9
$DIMCLRT
 70
    0
  9
$DIMTFAC
 40
1
  9
$DIMGAP
 40
0.625
  9
$DIMJUST
 70
    0
  9
$DIMSD1
 70
    0
  9
$DIMSD2
 70
    0
  9
$DIMTOLJ
 70
    0
  9
$DIMTZIN
 70
    8
  9
$DIMALTZ
 70
    0
  9
$DIMALTTZ
 70
    0
  9
$DIMUPT
 70
    0
  9
$DIMDEC
 70
    1
  9
$DIMTDEC
 70
    2
  9
$DIMALTU
 70
    2
  9
$DIMALTTD
 70
    3
  9
$DIMTXSTY
  7
standard
  9
$DIMAUNIT
 70
    0
  9
$DIMADEC
 70
    1
  9
$DIMALTRND
 40
0
  9
$DIMAZIN
 70
    0
  9
$DIMDSEP
 70
    0
  9
$DIMATFIT
 70
    3
  9
$DIMFRAC
 70
    0
  9
$DIMLDRBLK
  1
STANDARD
  9
$DIMLUNIT
 70
    2
  9
$DIMLWD
 70
   -2
  9
$DIMLWE
 70
   -2
  9
$DIMTMOVE
 70
    0
  9
$DIMFXL
 40
1
  9
$DIMFXLON
 70
    0
  9
$DIMJOGANG
 40
0.7854
  9
$DIMTFILL
 70
    0
  9
$DIMTFILLCLR
 70
    0
  9
$DIMARCSYM
 70
    0
  9
$DIMLTYPE
  6

  9
$DIMLTEX1
  6

  9
$DIMLTEX2
  6

  9
$LUNITS
 70
    2
  9
$LUPREC
 70
    1
  9
$SKETCHINC
 40
1
  9
$FILLETRAD
 40
0
  9
$AUNITS
 70
    0
  9
$AUPREC
 70
    1
  9
$MENU
  1
.
  9
$ELEVATION
 40
0
  9
$PELEVATION
 40
0
  9
$THICKNESS
 40
0
  9
$LIMCHECK
 70
    0
  9
$CHAMFERA
 40
0
  9
$CHAMFERB
 40
0
  9
$CHAMFERC
 40
0
  9
$CHAMFERD
 40
0
  9
$SKPOLY
 70
    0
  9
$USRTIMER
 70
    1
  9
$ANGBASE
 50
0
  9
$ANGDIR
 70
    0
  9
$PDMODE
 70
   34
  9
$PDSIZE
 40
0
  9
$PLINEWID
 40
0
  9
$SPLFRAME
 70
    0
  9
$SPLINETYPE
 70
    2
  9
$SPLINESEGS
 70
    8
  9
$HANDSEED
  5
20000
  9
$SURFTAB1
 70
    6
  9
$SURFTAB2
 70
    6
  9
$SURFTYPE
 70
    6
  9
$SURFU
 70
    6
  9
$SURFV
 70
    6
  9
$UCSBASE
  2

  9
$UCSNAME
  2

  9
$UCSORG
 10
0
 20
0
 30
0
  9
$UCSXDIR
 10
1
 20
0
 30
0
  9
$UCSYDIR
 10
0
 20
1
 30
0
  9
$UCSORTHOREF
  2

  9
$UCSORTHOVIEW
 70
    0
  9
$UCSORGTOP
 10
0
 20
0
 30
0
  9
$UCSORGBOTTOM
 10
0
 20
0
 30
0
  9
$UCSORGLEFT
 10
0
 20
0
 30
0
  9
$UCSORGRIGHT
 10
0
 20
0
 30
0
  9
$UCSORGFRONT
 10
0
 20
0
 30
0
  9
$UCSORGBACK
 10
0
 20
0
 30
0
  9
$PUCSBASE
  2

  9
$PUCSNAME
  2

  9
$PUCSORG
 10
0
 20
0
 30
0
  9
$PUCSXDIR
 10
1
 20
0
 30
0
  9
$PUCSYDIR
 10
0
 20
1
 30
0
  9
$PUCSORTHOREF
  2

  9
$PUCSORTHOVIEW
 70
    0
  9
$PUCSORGTOP
 10
0
 20
0
 30
0
  9
$PUCSORGBOTTOM
 10
0
 20
0
 30
0
  9
$PUCSORGLEFT
 10
0
 20
0
 30
0
  9
$PUCSORGRIGHT
 10
0
 20
0
 30
0
  9
$PUCSORGFRONT
 10
0
 20
0
 30
0
  9
$PUCSORGBACK
 10
0
 20
0
 30
0
  9
$USERI1
 70
    0
  9
$USERI2
 70
    0
  9
$USERI3
 70
    0
  9
$USERI4
 70
    0
  9
$USERI5
 70
    0
  9
$USERR1
 40
0
  9
$USERR2
 40
0
  9
$USERR3
 40
0
  9
$USERR4
 40
0
  9
$USERR5
 40
0
  9
$WORLDVIEW
 70
    1
  9
$SHADEDGE
 70
    3
  9
$SHADEDIF
 70
   70
  9
$TILEMODE
 70
    1
  9
$MAXACTVP
 70
   64
  9
$PINSBASE
 10
0
 20
0
 30
0
  9
$PLIMCHECK
 70
    0
  9
$PEXTMIN
 10
0
 20
0
 30
0
  9
$PEXTMAX
 10
0
 20
0
 30
0
  9
$GRIDMODE
 70
    1
  9
$SNAPSTYLE
 70
    0
  9
$GRIDUNIT
 10
0.1
 20
0.1
  9
$PLIMMIN
 10
0
 20
0
  9
$PLIMMAX
 10
420
 20
297
  9
$UNITMODE
 70
    0
  9
$VISRETAIN
 70
    1
  9
$PLINEGEN
 70
    0
  9
$PSLTSCALE
 70
    1
  9
$TREEDEPTH
 70
 3020
  9
$CMLSTYLE
  2
Standard
  9
$CMLJUST
 70
    0
  9
$CMLSCALE
 40
20
  9
$PROXYGRAPHICS
 70
    1
  9
$MEASUREMENT
 70
    1
  9
$CELWEIGHT
370
   -1
  9
$ENDCAPS
280
    0
  9
$JOINSTYLE
280
    0
  9
$LWDISPLAY
290
    0
  9
$INSUNITS
 70
    4
  9
$HYPERLINKBASE
  1

  9
$STYLESHEET
  1

  9
$XEDIT
290
    1
  9
$CEPSNTYPE
380
    0
  9
$PSTYLEMODE
290
    1
  9
$EXTNAMES
290
    1
  9
$PSVPSCALE
 40
1
  9
$OLESTARTUP
290
    0
  9
$SORTENTS
280
  127
  9
$INDEXCTL
280
    0
  9
$HIDETEXT
280
    1
  9
$XCLIPFRAME
290
    0
  9
$HALOGAP
280
    0
  9
$OBSCOLOR
 70
  257
  9
$OBSLTYPE
280
    0
  9
$INTERSECTIONDISPLAY
280
    0
  9
$INTERSECTIONCOLOR
 70
  257
  9
$DIMASSOC
280
    1
  9
$PROJECTNAME
  1

  9
$CAMERADISPLAY
290
    0
  9
$LENSLENGTH
 40
50
  9
$CAMERAHEIGHT
 40
0
  9
$STEPSPERSEC
 40
2
  9
$STEPSIZE
 40
50
  9
$3DDWFPREC
 40
2
  9
$PSOLWIDTH
 40
5
  9
$PSOLHEIGHT
 40
80
  9
$LOFTANG1
 40
1.570796326794897
  9
$LOFTANG2
 40
1.570796326794897
  9
$LOFTMAG1
 40
0
  9
$LOFTMAG2
 40
0
  9
$LOFTPARAM
 70
    7
  9
$LOFTNORMALS
280
    1
  9
$LATITUDE
 40
1
  9
$LONGITUDE
 40
1
  9
$NORTHDIRECTION
 40
0
  9
$TIMEZONE
 70
-8000
  9
$LIGHTGLYPHDISPLAY
280
    1
  9
$TILEMODELIGHTSYNCH
280
    1
  9
$SOLIDHIST
280
    1
  9
$SHOWHIST
280
    1
  9
$DWFFRAME
280
    2
  9
$DGNFRAME
280
    0
  9
$REALWORLDSCALE
290
    1
  9
$INTERFERECOLOR
 62
    1
  9
$CSHADOW
280
    0
  9
$SHADOWPLANELOCATION
 40
0
  0
ENDSEC
  0
SECTION
  2
CLASSES
  0
ENDSEC
  0
SECTION
  2
TABLES
  0
TABLE
  2
VPORT
  5
8
330
0
100
AcDbSymbolTable
 70
    1
  0
VPORT
  5
31
330
2
100
AcDbSymbolTableRecord
100
AcDbViewportTableRecord
  2
*ACTIVE
 70
    0
 10
0
 20
0
 11
1
 21
1
 12
59.19282511210762
 22
136.2780269058296
 13
0
 23
0
 14
10
 24
10
 15
0.1
 25
0.1
 16
0
 26
0
 36
1
 17
0
 27
0
 37
0
 40
245.3811659192825
 41
1.737938596491228
 42
50
 43
0
 44
0
 50
0
 51
0
 71
    0
 72
  100
 73
    1
 74
    3
 75
    0
 76
    1
 77
    0
 78
    0
281
    0
 65
    1
110
0
120
0
130
0
111
1
121
0
131
0
112
0
122
1
132
0
 79
    0
146
0
348
10020
 60
    3
 61
    5
292
1
282
    1
141
0
142
0
 63
  250
421
3358443
  0
ENDTAB
  0
TABLE
  2
LTYPE
  5
5
330
0
100
AcDbSymbolTable
 70
    4
  0
LTYPE
  5
14
330
5
100
AcDbSymbolTableRecord
100
AcDbLinetypeTableRecord
  2
ByBlock
 70
    0
  3

 72
   65
 73
    0
 40
0
  0
LTYPE
  5
15
330
5
100
AcDbSymbolTableRecord
100
AcDbLinetypeTableRecord
  2
ByLayer
 70
    0
  3

 72
   65
 73
    0
 40
0
  0
LTYPE
  5
16
330
5
100
AcDbSymbolTableRecord
100
AcDbLinetypeTableRecord
  2
Continuous
 70
    0
  3
Solid line
 72
   65
 73
    0
 40
0
  0
LTYPE
  5
32
330
5
100
AcDbSymbolTableRecord
100
AcDbLinetypeTableRecord
  2
DOT
 70
    0
  3
Dot . . . . . . . . . . . . . . . . . . . . . .
 72
   65
 73
    2
 40
6.35
 49
0
 74
    0
 49
-6.35
 74
    0
  0
LTYPE
  5
33
330
5
100
AcDbSymbolTableRecord
100
AcDbLinetypeTableRecord
  2
DOTTINY
 70
    0
  3
Dot (.15x) .....................................
 72
   65
 73
    2
 40
0.9525
 49
0
 74
    0
 49
-0.9525
 74
    0
  0
LTYPE
  5
34
330
5
100
AcDbSymbolTableRecord
100
AcDbLinetypeTableRecord
  2
DOT2
 70
    0
  3
Dot (.5x) .....................................
 72
   65
 73
    2
 40
3.175
 49
0
 74
    0
 49
-3.175
 74
    0
  0
LTYPE
  5
35
330
5
100
AcDbSymbolTableRecord
100
AcDbLinetypeTableRecord
  2
DOTX2
 70
    0
  3
Dot (2x) .  .  .  .  .  .  .  .  .  .  .  .  .
 72
   65
 73
    2
 40
12.7
 49
0
 74
    0
 49
-12.7
 74
    0
  0
LTYPE
  5
36
330
5
100
AcDbSymbolTableRecord
100
AcDbLinetypeTableRecord
  2
DASHED
 70
    0
  3
Dashed _ _ _ _ _ _ _ _ _ _ _ _ _ _ _ _ _
 72
   65
 73
    2
 40
19.05
 49
12.7
 74
    0
 49
-6.35
 74
    0
  0
LTYPE
  5
37
330
5
100
AcDbSymbolTableRecord
100
AcDbLinetypeTableRecord
  2
DASHEDTINY
 70
    0
  3
Dashed (.15x) _ _ _ _ _ _ _ _ _ _ _ _ _ _ _ _ _
 72
   65
 73
    2
 40
2.8575
 49
1.905
 74
    0
 49
-0.9525
 74
    0
  0
LTYPE
  5
38
330
5
100
AcDbSymbolTableRecord
100
AcDbLinetypeTableRecord
  2
DASHED2
 70
    0
  3
Dashed (.5x) _ _ _ _ _ _ _ _ _ _ _ _ _ _ _ _ _
 72
   65
 73
    2
 40
9.524999999999999
 49
6.35
 74
    0
 49
-3.175
 74
    0
  0
LTYPE
  5
39
330
5
100
AcDbSymbolTableRecord
100
AcDbLinetypeTableRecord
  2
DASHEDX2
 70
    0
  3
Dashed (2x) ____  ____  ____  ____  ____  ___
 72
   65
 73
    2
 40
38.09999999999999
 49
25.4
 74
    0
 49
-12.7
 74
    0
  0
LTYPE
  5
3A
330
5
100
AcDbSymbolTableRecord
100
AcDbLinetypeTableRecord
  2
DASHDOT
 70
    0
  3
Dash dot __ . __ . __ . __ . __ . __ . __ . __
 72
   65
 73
    4
 40
25.4
 49
12.7
 74
    0
 49
-6.35
 74
    0
 49
0
 74
    0
 49
-6.35
 74
    0
  0
LTYPE
  5
3B
330
5
100
AcDbSymbolTableRecord
100
AcDbLinetypeTableRecord
  2
DASHDOTTINY
 70
    0
  3
Dash dot (.15x) _._._._._._._._._._._._._._._.
 72
   65
 73
    4
 40
3.81
 49
1.905
 74
    0
 49
-0.9525
 74
    0
 49
0
 74
    0
 49
-0.9525
 74
    0
  0
LTYPE
  5
3C
330
5
100
AcDbSymbolTableRecord
100
AcDbLinetypeTableRecord
  2
DASHDOT2
 70
    0
  3
Dash dot (.5x) _._._._._._._._._._._._._._._.
 72
   65
 73
    4
 40
12.7
 49
6.35
 74
    0
 49
-3.175
 74
    0
 49
0
 74
    0
 49
-3.175
 74
    0
  0
LTYPE
  5
3D
330
5
100
AcDbSymbolTableRecord
100
AcDbLinetypeTableRecord
  2
DASHDOTX2
 70
    0
  3
Dash dot (2x) ____  .  ____  .  ____  .  ___
 72
   65
 73
    4
 40
50.8
 49
25.4
 74
    0
 49
-12.7
 74
    0
 49
0
 74
    0
 49
-12.7
 74
    0
  0
LTYPE
  5
3E
330
5
100
AcDbSymbolTableRecord
100
AcDbLinetypeTableRecord
  2
DIVIDE
 70
    0
  3
Divide ____ . . ____ . . ____ . . ____ . . ____
 72
   65
 73
    6
 40
31.75
 49
12.7
 74
    0
 49
-6.35
 74
    0
 49
0
 74
    0
 49
-6.35
 74
    0
 49
0
 74
    0
 49
-6.35
 74
    0
  0
LTYPE
  5
3F
330
5
100
AcDbSymbolTableRecord
100
AcDbLinetypeTableRecord
  2
DIVIDETINY
 70
    0
  3
Divide (.15x) __..__..__..__..__..__..__..__.._
 72
   65
 73
    6
 40
4.7625
 49
1.905
 74
    0
 49
-0.9525
 74
    0
 49
0
 74
    0
 49
-0.9525
 74
    0
 49
0
 74
    0
 49
-0.9525
 74
    0
  0
LTYPE
  5
40
330
5
100
AcDbSymbolTableRecord
100
AcDbLinetypeTableRecord
  2
DIVIDE2
 70
    0
  3
Divide (.5x) __..__..__..__..__..__..__..__.._
 72
   65
 73
    6
 40
15.875
 49
6.35
 74
    0
 49
-3.175
 74
    0
 49
0
 74
    0
 49
-3.175
 74
    0
 49
0
 74
    0
 49
-3.175
 74
    0
  0
LTYPE
  5
41
330
5
100
AcDbSymbolTableRecord
100
AcDbLinetypeTableRecord
  2
DIVIDEX2
 70
    0
  3
Divide (2x) ________  .  .  ________  .  .  _
 72
   65
 73
    6
 40
63.5
 49
25.4
 74
    0
 49
-12.7
 74
    0
 49
0
 74
    0
 49
-12.7
 74
    0
 49
0
 74
    0
 49
-12.7
 74
    0
  0
LTYPE
  5
42
330
5
100
AcDbSymbolTableRecord
100
AcDbLinetypeTableRecord
  2
BORDER
 70
    0
  3
Border __ __ . __ __ . __ __ . __ __ . __ __ .
 72
   65
 73
    6
 40
44.45
 49
12.7
 74
    0
 49
-6.35
 74
    0
 49
12.7
 74
    0
 49
-6.35
 74
    0
 49
0
 74
    0
 49
-6.35
 74
    0
  0
LTYPE
  5
43
330
5
100
AcDbSymbolTableRecord
100
AcDbLinetypeTableRecord
  2
BORDERTINY
 70
    0
  3
Border (.15x) __.__.__.__.__.__.__.__.__.__.__.
 72
   65
 73
    6
 40
6.6675
 49
1.905
 74
    0
 49
-0.9525
 74
    0
 49
1.905
 74
    0
 49
-0.9525
 74
    0
 49
0
 74
    0
 49
-0.9525
 74
    0
  0
LTYPE
  5
44
330
5
100
AcDbSymbolTableRecord
100
AcDbLinetypeTableRecord
  2
BORDER2
 70
    0
  3
Border (.5x) __.__.__.__.__.__.__.__.__.__.__.
 72
   65
 73
    6
 40
22.225
 49
6.35
 74
    0
 49
-3.175
 74
    0
 49
6.35
 74
    0
 49
-3.175
 74
    0
 49
0
 74
    0
 49
-3.175
 74
    0
  0
LTYPE
  5
45
330
5
100
AcDbSymbolTableRecord
100
AcDbLinetypeTableRecord
  2
BORDERX2
 70
    0
  3
Border (2x) ____  ____  .  ____  ____  .  ___
 72
   65
 73
    6
 40
88.89999999999999
 49
25.4
 74
    0
 49
-12.7
 74
    0
 49
25.4
 74
    0
 49
-12.7
 74
    0
 49
0
 74
    0
 49
-12.7
 74
    0
  0
LTYPE
  5
46
330
5
100
AcDbSymbolTableRecord
100
AcDbLinetypeTableRecord
  2
CENTER
 70
    0
  3
Center ____ _ ____ _ ____ _ ____ _ ____ _ ____
 72
   65
 73
    4
 40
50.8
 49
31.75
 74
    0
 49
-6.35
 74
    0
 49
6.35
 74
    0
 49
-6.35
 74
    0
  0
LTYPE
  5
47
330
5
100
AcDbSymbolTableRecord
100
AcDbLinetypeTableRecord
  2
CENTERTINY
 70
    0
  3
Center (.15x) ___ _ ___ _ ___ _ ___ _ ___ _ ___
 72
   65
 73
    4
 40
7.619999999999999
 49
4.7625
 74
    0
 49
-0.9525
 74
    0
 49
0.9525
 74
    0
 49
-0.9525
 74
    0
  0
LTYPE
  5
48
330
5
100
AcDbSymbolTableRecord
100
AcDbLinetypeTableRecord
  2
CENTER2
 70
    0
  3
Center (.5x) ___ _ ___ _ ___ _ ___ _ ___ _ ___
 72
   65
 73
    4
 40
28.575
 49
19.05
 74
    0
 49
-3.175
 74
    0
 49
3.175
 74
    0
 49
-3.175
 74
    0
  0
LTYPE
  5
49
330
5
100
AcDbSymbolTableRecord
100
AcDbLinetypeTableRecord
  2
CENTERX2
 70
    0
  3
Center (2x) ________  __  ________  __  _____
 72
   65
 73
    4
 40
101.6
 49
63.5
 74
    0
 49
-12.7
 74
    0
 49
12.7
 74
    0
 49
-12.7
 74
    0
  0
ENDTAB
  0
TABLE
  2
LAYER
  5
2
330
0
100
AcDbSymbolTable
 70
    1
  0
LAYER
  5
10
330
2
100
AcDbSymbolTableRecord
100
AcDbLayerTableRecord
  2
0
 70
    0
 62
    7
  6
CONTINUOUS
370
   -3
390
F
  0
LAYER
  5
4A
330
2
100
AcDbSymbolTableRecord
100
AcDbLayerTableRecord
  2
Bemassung
 70
    0
 62
    2
  6
CONTINUOUS
370
    0
390
F
  0
LAYER
  5
4B
330
2
100
AcDbSymbolTableRecord
100
AcDbLayerTableRecord
  2
Boden
 70
    0
 62
    5
  6
CONTINUOUS
370
    0
390
F
  0
LAYER
  5
4C
330
2
100
AcDbSymbolTableRecord
100
AcDbLayerTableRecord
  2
Deckel
 70
    0
 62
  253
420
10526884
  6
CONTINUOUS
370
    0
390
F
  0
LAYER
  5
4D
330
2
100
AcDbSymbolTableRecord
100
AcDbLayerTableRecord
  2
Deckelseiten
 70
    0
 62
    7
  6
CONTINUOUS
370
    0
390
F
  0
LAYER
  5
4E
330
2
100
AcDbSymbolTableRecord
100
AcDbLayerTableRecord
  2
Fronten
 70
    0
 62
    5
  6
CONTINUOUS
370
    0
390
F
  0
LAYER
  5
4F
330
2
100
AcDbSymbolTableRecord
100
AcDbLayerTableRecord
  2
Living Hinge
 70
    0
 62
    7
  6
CONTINUOUS
370
    0
390
F
  0
LAYER
  5
50
330
2
100
AcDbSymbolTableRecord
100
AcDbLayerTableRecord
  2
Naegel
 70
    0
 62
    7
  6
CONTINUOUS
370
    0
390
F
  0
LAYER
  5
51
330
2
100
AcDbSymbolTableRecord
100
AcDbLayerTableRecord
  2
Seiten
 70
    0
 62
    5
  6
CONTINUOUS
370
    0
390
F
  0
ENDTAB
  0
TABLE
  2
STYLE
  5
3
330
0
100
AcDbSymbolTable
 70
    3
  0
STYLE
  5
52
330
2
100
AcDbSymbolTableRecord
100
AcDbTextStyleTableRecord
  2
Standard
 70
    0
 40
0
 41
1
 50
0
 71
    0
 42
1
  3
txt
  4

  0
ENDTAB
  0
TABLE
  2
VIEW
  5
6
330
0
100
AcDbSymbolTable
 70
    0
  0
ENDTAB
  0
TABLE
  2
UCS
  5
7
330
0
100
AcDbSymbolTable
 70
    0
  0
ENDTAB
  0
TABLE
  2
APPID
  5
9
330
0
100
AcDbSymbolTable
 70
    1
  0
APPID
  5
12
330
9
100
AcDbSymbolTableRecord
100
AcDbRegAppTableRecord
  2
ACAD
 70
    0
  0
APPID
  5
53
330
9
100
AcDbSymbolTableRecord
100
AcDbRegAppTableRecord
  2
LibreCad
 70
    0
  0
ENDTAB
  0
TABLE
  2
DIMSTYLE
  5
A
330
0
100
AcDbSymbolTable
 70
    1
100
AcDbDimStyleTable
 71
    1
  0
DIMSTYLE
105
54
330
A
100
AcDbSymbolTableRecord
100
AcDbDimStyleTableRecord
  2
Standard
 70
    0
 40
1
 41
2.5
 42
0.625
 43
0.38
 44
1.25
 45
0
 46
0
 47
0
 48
0
 49
1
140
2.5
141
0.09
142
0
143
25.4
144
1
145
0
146
1
147
0.625
148
0
 71
    0
 72
    0
 73
    0
 74
    1
 75
    0
 76
    0
 77
    0
 78
    1
 79
    0
170
    0
171
    2
172
    0
173
    0
174
    0
175
    0
176
    0
177
    0
178
    0
179
    1
271
    1
272
    4
273
    2
274
    2
275
    0
276
    0
277
    2
278
    0
279
    0
280
    0
281
    0
282
    0
283
    1
284
    0
285
    0
286
    0
288
    0
289
    3
340
standard
341

371
   -2
372
   -2
  0
ENDTAB
  0
TABLE
  2
BLOCK_RECORD
  5
1
330
0
100
AcDbSymbolTable
 70
    2
  0
BLOCK_RECORD
  5
1F
330
1
100
AcDbSymbolTableRecord
100
AcDbBlockTableRecord
  2
*Model_Space
 70
    0
280
    1
281
    0
  0
BLOCK_RECORD
  5
1E
330
1
100
AcDbSymbolTableRecord
100
AcDbBlockTableRecord
  2
*Paper_Space
 70
    0
280
    1
281
    0
  0
BLOCK_RECORD
  5
55
330
1
100
AcDbSymbolTableRecord
100
AcDbBlockTableRecord
  2
*D1
 70
    0
280
    1
281
    0
  0
BLOCK_RECORD
  5
58
330
1
100
AcDbSymbolTableRecord
100
AcDbBlockTableRecord
  2
Nagel
 70
    0
280
    1
281
    0
  0
BLOCK_RECORD
  5
5B
330
1
100
AcDbSymbolTableRecord
100
AcDbBlockTableRecord
  2
Scharnier oben
 70
    0
280
    1
281
    0
  0
BLOCK_RECORD
  5
5E
330
1
100
AcDbSymbolTableRecord
100
AcDbBlockTableRecord
  2
Scharnier seite
 70
    0
280
    1
281
    0
  0
ENDTAB
  0
ENDSEC
  0
SECTION
  2
BLOCKS
  0
BLOCK
  5
20
330
1F
100
AcDbEntity
  8
0
100
AcDbBlockBegin
  2
*Model_Space
 70
    0
 10
0
 20
0
 30
0
  3
*Model_Space
  1

  0
ENDBLK
  5
21
330
1F
100
AcDbEntity
  8
0
100
AcDbBlockEnd
  0
BLOCK
  5
1C
330
1B
100
AcDbEntity
  8
0
100
AcDbBlockBegin
  2
*Paper_Space
 70
    0
 10
0
 20
0
 30
0
  3
*Paper_Space
  1

  0
ENDBLK
  5
1D
330
1F
100
AcDbEntity
  8
0
100
AcDbBlockEnd
  0
BLOCK
  5
56
330
55
100
AcDbEntity
  8
0
100
AcDbBlockBegin
  2
*D1
 70
    1
 10
0
 20
0
  3
*D1
  1

  0
LINE
  5
61
100
AcDbEntity
  8
Bemassung
  6
ByBlock
 62
    0
370
   -2
100
AcDbLine
 10
-260
 20
269.375
 11
-260
 21
258.75
  0
LINE
  5
62
100
AcDbEntity
  8
Bemassung
  6
ByBlock
 62
    0
370
   -2
100
AcDbLine
 10
70
 20
269.375
 11
70
 21
258.75
  0
LINE
  5
63
100
AcDbEntity
  8
Bemassung
  6
ByBlock
 62
    0
370
   -2
100
AcDbLine
 10
-260
 20
260
 11
70
 21
260
  0
SOLID
  5
64
100
AcDbEntity
  8
Bemassung
  6
ByBlock
 62
    0
370
   -2
100
AcDbTrace
 10
-260
 20
260
 30
0
 11
-257.5
 21
260.4162846577728
 31
0
 12
-257.5
 22
259.5837153422272
 32
0
 13
-257.5
 23
259.5837153422272
 33
0
  0
SOLID
  5
65
100
AcDbEntity
  8
Bemassung
  6
ByBlock
 62
    0
370
   -2
100
AcDbTrace
 10
70
 20
260
 30
0
 11
67.5
 21
259.5837153422272
 31
0
 12
67.5
 22
260.4162846577728
 32
0
 13
67.5
 23
260.4162846577728
 33
0
  0
MTEXT
  5
66
100
AcDbEntity
  8
Bemassung
  6
CONTINUOUS
 62
    0
370
   -2
100
AcDbMText
 10
-95
 20
261.875
 30
0
 40
2.5
 41
7.777777777778088
 71
    5
 72
    1
  1
330.0
  7
standard
210
0
220
0
230
1
 50
0
 73
    2
 44
1
  0
ENDBLK
  5
57
330
55
100
AcDbEntity
  8
0
100
AcDbBlockEnd
  0
BLOCK
  5
59
330
58
100
AcDbEntity
  8
0
100
AcDbBlockBegin
  2
Nagel
 70
    0
 10
0
 20
0
  3
Nagel
  1

  0
CIRCLE
  5
67
100
AcDbEntity
  8
Naegel
  6
ByLayer
 62
  256
370
   -1
100
AcDbCircle
 10
0
 20
0
 40
1
  0
ENDBLK
  5
5A
330
58
100
AcDbEntity
  8
0
100
AcDbBlockEnd
  0
BLOCK
  5
5C
330
5B
100
AcDbEntity
  8
0
100
AcDbBlockBegin
  2
Scharnier oben
 70
    0
 10
0
 20
0
  3
Scharnier oben
  1

  0
ENDBLK
  5
5D
330
5B
100
AcDbEntity
  8
0
100
AcDbBlockEnd
  0
BLOCK
  5
5F
330
5E
100
AcDbEntity
  8
0
100
AcDbBlockBegin
  2
Scharnier seite
 70
    0
 10
0
 20
0
  3
Scharnier seite
  1

  0
ENDBLK
  5
60
330
5E
100
AcDbEntity
  8
0
100
AcDbBlockEnd
  0
ENDSEC
  0
SECTION
  2
ENTITIES
  0
LINE
  5
68
100
AcDbEntity
  8
Boden
  6
ByLayer
 62
  256
370
   -1
100
AcDbLine
 10
-173
 20
150
 11
-170
 21
150
  0
LINE
  5
69
100
AcDbEntity
  8
Boden
  6
ByLayer
 62
  256
370
   -1
100
AcDbLine
 10
-173
 20
140
 11
-170
 21
140
  0
LINE
  5
6A
100
AcDbEntity
  8
Boden
  6
ByLayer
 62
  256
370
   -1
100
AcDbLine
 10
-40
 20
150
 11
-37
 21
150
  0
LINE
  5
6B
100
AcDbEntity
  8
Boden
  6
ByLayer
 62
  256
370
   -1
100
AcDbLine
 10
-37
 20
140
 11
-40
 21
140
  0
LINE
  5
6C
100
AcDbEntity
  8
Seiten
  6
ByLayer
 62
  256
370
   -1
100
AcDbLine
 10
-249
 20
173
 11
-249
 21
117
  0
LINE
  5
6D
100
AcDbEntity
  8
Seiten
  6
ByLayer
 62
  256
370
   -1
100
AcDbLine
 10
-239
 20
140
 11
-239
 21
150
  0
LINE
  5
6E
100
AcDbEntity
  8
Seiten
  6
ByLayer
 62
  256
370
   -1
100
AcDbLine
 10
-235
 20
150
 11
-239
 21
150
  0
LINE
  5
6F
100
AcDbEntity
  8
Seiten
  6
ByLayer
 62
  256
370
   -1
100
AcDbLine
 10
-235
 20
140
 11
-239
 21
140
  0
LINE
  5
70
100
AcDbEntity
  8
Seiten
  6
ByLayer
 62
  256
370
   -1
100
AcDbLine
 10
47
 20
173
 11
47
 21
117
  0
LINE
  5
71
100
AcDbEntity
  8
Seiten
  6
ByLayer
 62
  256
370
   -1
100
AcDbLine
 10
37
 20
140
 11
37
 21
150
  0
LINE
  5
72
100
AcDbEntity
  8
Seiten
  6
ByLayer
 62
  256
370
   -1
100
AcDbLine
 10
33
 20
150
 11
37
 21
150
  0
LINE
  5
73
100
AcDbEntity
  8
Seiten
  6
ByLayer
 62
  256
370
   -1
100
AcDbLine
 10
33
 20
140
 11
37
 21
140
  0
LINE
  5
74
100
AcDbEntity
  8
Seiten
  6
ByLayer
 62
  256
370
   -1
100
AcDbLine
 10
-235
 20
150
 11
-234.7
 21
150
  0
LINE
  5
75
100
AcDbEntity
  8
Seiten
  6
ByLayer
 62
  256
370
   -1
100
AcDbLine
 10
-234.7
 20
150
 11
-234.7
 21
140
  0
LINE
  5
76
100
AcDbEntity
  8
Seiten
  6
ByLayer
 62
  256
370
   -1
100
AcDbLine
 10
-234.7
 20
140
 11
-235
 21
140
  0
LINE
  5
77
100
AcDbEntity
  8
Seiten
  6
ByLayer
 62
  256
370
   -1
100
AcDbLine
 10
33
 20
150
 11
32.7
 21
150
  0
LINE
  5
78
100
AcDbEntity
  8
Seiten
  6
ByLayer
 62
  256
370
   -1
100
AcDbLine
 10
32.7
 20
150
 11
32.7
 21
148.1
  0
LINE
  5
79
100
AcDbEntity
  8
Seiten
  6
ByLayer
 62
  256
370
   -1
100
AcDbLine
 10
32.7
 20
148.1
 11
32.7
 21
140
  0
LINE
  5
7A
100
AcDbEntity
  8
Seiten
  6
ByLayer
 62
  256
370
   -1
100
AcDbLine
 10
32.7
 20
140
 11
33
 21
140
  0
LINE
  5
7B
100
AcDbEntity
  8
Seiten
  6
ByLayer
 62
  256
370
   -1
100
AcDbLine
 10
-249
 20
173
 11
-249
 21
177
  0
LINE
  5
7C
100
AcDbEntity
  8
Seiten
  6
ByLayer
 62
  256
370
   -1
100
AcDbLine
 10
-249
 20
177
 11
-239
 21
177
  0
LINE
  5
7D
100
AcDbEntity
  8
Seiten
  6
ByLayer
 62
  256
370
   -1
100
AcDbLine
 10
-249
 20
117
 11
-249
 21
113
  0
LINE
  5
7E
100
AcDbEntity
  8
Seiten
  6
ByLayer
 62
  256
370
   -1
100
AcDbLine
 10
-249
 20
113
 11
-239
 21
113
  0
LINE
  5
7F
100
AcDbEntity
  8
Seiten
  6
ByLayer
 62
  256
370
   -1
100
AcDbLine
 10
47
 20
173
 11
47
 21
177
  0
LINE
  5
80
100
AcDbEntity
  8
Seiten
  6
ByLayer
 62
  256
370
   -1
100
AcDbLine
 10
47
 20
177
 11
37
 21
177
  0
LINE
  5
81
100
AcDbEntity
  8
Seiten
  6
ByLayer
 62
  256
370
   -1
100
AcDbLine
 10
47
 20
117
 11
47
 21
113
  0
LINE
  5
82
100
AcDbEntity
  8
Seiten
  6
ByLayer
 62
  256
370
   -1
100
AcDbLine
 10
47
 20
113
 11
37
 21
113
  0
LINE
  5
83
100
AcDbEntity
  8
Seiten
  6
ByLayer
 62
  256
370
   -1
100
AcDbLine
 10
-179
 20
173
 11
-179
 21
117
  0
LINE
  5
84
100
AcDbEntity
  8
Seiten
  6
ByLayer
 62
  256
370
   -1
100
AcDbLine
 10
-23
 20
173
 11
-23
 21
117
  0
LINE
  5
85
100
AcDbEntity
  8
Seiten
  6
ByLayer
 62
  256
370
   -1
100
AcDbLine
 10
-239
 20
113
 11
-229
 21
113
  0
LINE
  5
86
100
AcDbEntity
  8
Seiten
  6
ByLayer
 62
  256
370
   -1
100
AcDbLine
 10
-229
 20
113
 11
-229
 21
117
  0
LINE
  5
87
100
AcDbEntity
  8
Seiten
  6
ByLayer
 62
  256
370
   -1
100
AcDbLine
 10
-239
 20
177
 11
-229
 21
177
  0
LINE
  5
88
100
AcDbEntity
  8
Seiten
  6
ByLayer
 62
  256
370
   -1
100
AcDbLine
 10
-229
 20
177
 11
-229
 21
173
  0
LINE
  5
89
100
AcDbEntity
  8
Seiten
  6
ByLayer
 62
  256
370
   -1
100
AcDbLine
 10
37
 20
177
 11
27
 21
177
  0
LINE
  5
8A
100
AcDbEntity
  8
Seiten
  6
ByLayer
 62
  256
370
   -1
100
AcDbLine
 10
27
 20
177
 11
27
 21
173
  0
LINE
  5
8B
100
AcDbEntity
  8
Seiten
  6
ByLayer
 62
  256
370
   -1
100
AcDbLine
 10
37
 20
113
 11
27
 21
113
  0
LINE
  5
8C
100
AcDbEntity
  8
Seiten
  6
ByLayer
 62
  256
370
   -1
100
AcDbLine
 10
27
 20
113
 11
27
 21
117
  0
LINE
  5
8D
100
AcDbEntity
  8
Seiten
  6
ByLayer
 62
  256
370
   -1
100
AcDbLine
 10
-229
 20
117
 11
-183
 21
117
  0
LINE
  5
8E
100
AcDbEntity
  8
Seiten
  6
ByLayer
 62
  256
370
   -1
100
AcDbLine
 10
-229
 20
173
 11
-183
 21
173
  0
LINE
  5
8F
100
AcDbEntity
  8
Seiten
  6
ByLayer
 62
  256
370
   -1
100
AcDbLine
 10
-23
 20
173
 11
-23
 21
177
  0
LINE
  5
90
100
AcDbEntity
  8
Seiten
  6
ByLayer
 62
  256
370
   -1
100
AcDbLine
 10
-23
 20
177
 11
-19
 21
177
  0
LINE
  5
91
100
AcDbEntity
  8
Seiten
  6
ByLayer
 62
  256
370
   -1
100
AcDbLine
 10
-19
 20
177
 11
-19
 21
173
  0
LINE
  5
92
100
AcDbEntity
  8
Seiten
  6
ByLayer
 62
  256
370
   -1
100
AcDbLine
 10
-23
 20
117
 11
-23
 21
113
  0
LINE
  5
93
100
AcDbEntity
  8
Seiten
  6
ByLayer
 62
  256
370
   -1
100
AcDbLine
 10
-23
 20
113
 11
-19
 21
113
  0
LINE
  5
94
100
AcDbEntity
  8
Seiten
  6
ByLayer
 62
  256
370
   -1
100
AcDbLine
 10
-19
 20
113
 11
-19
 21
117
  0
LINE
  5
95
100
AcDbEntity
  8
Seiten
  6
ByLayer
 62
  256
370
   -1
100
AcDbLine
 10
27
 20
117
 11
-19
 21
117
  0
LINE
  5
96
100
AcDbEntity
  8
Seiten
  6
ByLayer
 62
  256
370
   -1
100
AcDbLine
 10
27
 20
173
 11
-19
 21
173
  0
LINE
  5
97
100
AcDbEntity
  8
Seiten
  6
ByLayer
 62
  256
370
   -1
100
AcDbLine
 10
-179
 20
117
 11
-179
 21
113
  0
LINE
  5
98
100
AcDbEntity
  8
Seiten
  6
ByLayer
 62
  256
370
   -1
100
AcDbLine
 10
-179
 20
113
 11
-183
 21
113
  0
LINE
  5
99
100
AcDbEntity
  8
Seiten
  6
ByLayer
 62
  256
370
   -1
100
AcDbLine
 10
-183
 20
113
 11
-183
 21
117
  0
LINE
  5
9A
100
AcDbEntity
  8
Seiten
  6
ByLayer
 62
  256
370
   -1
100
AcDbLine
 10
-179
 20
173
 11
-179
 21
177
  0
LINE
  5
9B
100
AcDbEntity
  8
Seiten
  6
ByLayer
 62
  256
370
   -1
100
AcDbLine
 10
-179
 20
177
 11
-183
 21
177
  0
LINE
  5
9C
100
AcDbEntity
  8
Seiten
  6
ByLayer
 62
  256
370
   -1
100
AcDbLine
 10
-183
 20
177
 11
-183
 21
173
  0
INSERT
  5
9D
100
AcDbEntity
  8
Naegel
  6
ByLayer
 62
  256
370
   -1
100
AcDbBlockReference
  2
Nagel
 10
-233
 20
174
 30
0
 41
1
 42
1
 43
0
 50
0
 70
    1
 71
    1
 44
1
 45
1
  0
INSERT
  5
9E
100
AcDbEntity
  8
Naegel
  6
ByLayer
 62
  256
370
   -1
100
AcDbBlockReference
  2
Nagel
 10
-233
 20
115
 30
0
 41
1
 42
1
 43
0
 50
0
 70
    1
 71
    1
 44
1
 45
1
  0
INSERT
  5
9F
100
AcDbEntity
  8
Naegel
  6
ByLayer
 62
  256
370
   -1
100
AcDbBlockReference
  2
Nagel
 10
30
 20
175
 30
0
 41
1
 42
1
 43
0
 50
0
 70
    1
 71
    1
 44
1
 45
1
  0
INSERT
  5
A0
100
AcDbEntity
  8
Naegel
  6
ByLayer
 62
  256
370
   -1
100
AcDbBlockReference
  2
Nagel
 10
31
 20
115
 30
0
 41
1
 42
1
 43
0
 50
0
 70
    1
 71
    1
 44
1
 45
1
  0
LINE
  5
A1
100
AcDbEntity
  8
Fronten
  6
ByLayer
 62
  256
370
   -1
100
AcDbLine
 10
-169.958838648618
 20
239.7941932430908
 11
-173.8811613513816
 21
239.0097287025381
  0
LINE
  5
A2
100
AcDbEntity
  8
Fronten
  6
ByLayer
 62
  256
370
   -1
100
AcDbLine
 10
-171.9199999999998
 20
249.6
 11
-169.9588386486179
 21
239.7941932430908
  0
LINE
  5
A3
100
AcDbEntity
  8
Fronten
  6
ByLayer
 62
  256
370
   -1
100
AcDbLine
 10
-171.9199999999998
 20
249.6
 11
-41.91999999999976
 21
249.6
  0
LINE
  5
A4
100
AcDbEntity
  8
Fronten
  6
ByLayer
 62
  256
370
   -1
100
AcDbLine
 10
-43.88116135138159
 20
239.7941932430908
 11
-39.9588386486179
 21
239.0097287025381
  0
LINE
  5
A5
100
AcDbEntity
  8
Fronten
  6
ByLayer
 62
  256
370
   -1
100
AcDbLine
 10
-41.91999999999976
 20
249.6
 11
-43.88116135138162
 21
239.7941932430908
  0
LINE
  5
A6
100
AcDbEntity
  8
Fronten
  6
ByLayer
 62
  256
370
   -1
100
AcDbLine
 10
-160.9374964322617
 20
194.6874821613085
 11
-164.8598191350254
 21
193.9030176207557
  0
LINE
  5
A7
100
AcDbEntity
  8
Fronten
  6
ByLayer
 62
  256
370
   -1
100
AcDbLine
 10
-173.8811613513816
 20
239.0097287025381
 11
-164.8598191350252
 21
193.9030176207557
  0
LINE
  5
A8
100
AcDbEntity
  8
Fronten
  6
ByLayer
 62
  256
370
   -1
100
AcDbLine
 10
-160.9374964322617
 20
194.6874821613085
 11
-160
 21
190
  0
LINE
  5
A9
100
AcDbEntity
  8
Fronten
  6
ByLayer
 62
  256
370
   -1
100
AcDbLine
 10
-159.9999999999999
 20
190
 11
-53.83999999999963
 21
190
  0
LINE
  5
AA
100
AcDbEntity
  8
Fronten
  6
ByLayer
 62
  256
370
   -1
100
AcDbLine
 10
-52.90250356773788
 20
194.6874821613085
 11
-48.98018086497419
 21
193.9030176207557
  0
LINE
  5
AB
100
AcDbEntity
  8
Fronten
  6
ByLayer
 62
  256
370
   -1
100
AcDbLine
 10
-39.95883864861798
 20
239.0097287025381
 11
-48.98018086497439
 21
193.9030176207558
  0
LINE
  5
AC
100
AcDbEntity
  8
Fronten
  6
ByLayer
 62
  256
370
   -1
100
AcDbLine
 10
-52.90250356773788
 20
194.6874821613085
 11
-53.83999999999963
 21
190
  0
INSERT
  5
AD
100
AcDbEntity
  8
Naegel
  6
ByLayer
 62
  256
370
   -1
100
AcDbBlockReference
  2
Nagel
 10
-167
 20
216
 30
0
 41
-1
 42
1
 43
0
 50
180
 70
    1
 71
    1
 44
1
 45
1
  0
INSERT
  5
AE
100
AcDbEntity
  8
Naegel
  6
ByLayer
 62
  256
370
   -1
100
AcDbBlockReference
  2
Nagel
 10
-171
 20
236
 30
0
 41
-1
 42
1
 43
0
 50
180
 70
    1
 71
    1
 44
1
 45
1
  0
INSERT
  5
AF
100
AcDbEntity
  8
Naegel
  6
ByLayer
 62
  256
370
   -1
100
AcDbBlockReference
  2
Nagel
 10
-163
 20
197
 30
0
 41
-1
 42
1
 43
0
 50
180
 70
    1
 71
    1
 44
1
 45
1
  0
INSERT
  5
B0
100
AcDbEntity
  8
Naegel
  6
ByLayer
 62
  256
370
   -1
100
AcDbBlockReference
  2
Nagel
 10
-51
 20
197
 30
0
 41
-1
 42
1
 43
0
 50
180
 70
    1
 71
    1
 44
1
 45
1
  0
INSERT
  5
B1
100
AcDbEntity
  8
Naegel
  6
ByLayer
 62
  256
370
   -1
100
AcDbBlockReference
  2
Nagel
 10
-47
 20
216
 30
0
 41
-1
 42
1
 43
0
 50
180
 70
    1
 71
    1
 44
1
 45
1
  0
INSERT
  5
B2
100
AcDbEntity
  8
Naegel
  6
ByLayer
 62
  256
370
   -1
100
AcDbBlockReference
  2
Nagel
 10
-43
 20
236
 30
0
 41
-1
 42
1
 43
0
 50
180
 70
    1
 71
    1
 44
1
 45
1
  0
INSERT
  5
B3
100
AcDbEntity
  8
Naegel
  6
ByLayer
 62
  256
370
   -1
100
AcDbBlockReference
  2
Nagel
 10
-164
 20
247
 30
0
 41
-1
 42
1
 43
0
 50
180
 70
    1
 71
    1
 44
1
 45
1
  0
INSERT
  5
B4
100
AcDbEntity
  8
Naegel
  6
ByLayer
 62
  256
370
   -1
100
AcDbBlockReference
  2
Nagel
 10
-135
 20
247
 30
0
 41
-1
 42
1
 43
0
 50
180
 70
    1
 71
    1
 44
1
 45
1
  0
INSERT
  5
B5
100
AcDbEntity
  8
Naegel
  6
ByLayer
 62
  256
370
   -1
100
AcDbBlockReference
  2
Nagel
 10
-102
 20
247
 30
0
 41
-1
 42
1
 43
0
 50
180
 70
    1
 71
    1
 44
1
 45
1
  0
INSERT
  5
B6
100
AcDbEntity
  8
Naegel
  6
ByLayer
 62
  256
370
   -1
100
AcDbBlockReference
  2
Nagel
 10
-70
 20
247
 30
0
 41
-1
 42
1
 43
0
 50
180
 70
    1
 71
    1
 44
1
 45
1
  0
INSERT
  5
B7
100
AcDbEntity
  8
Naegel
  6
ByLayer
 62
  256
370
   -1
100
AcDbBlockReference
  2
Nagel
 10
-48
 20
247
 30
0
 41
-1
 42
1
 43
0
 50
180
 70
    1
 71
    1
 44
1
 45
1
  0
LINE
  5
B8
100
AcDbEntity
  8
Fronten
  6
ByLayer
 62
  256
370
   -1
100
AcDbLine
 10
-246.0388386486182
 20
49.80580675690921
 11
-249.9611613513819
 21
50.59027129746194
  0
LINE
  5
B9
100
AcDbEntity
  8
Fronten
  6
ByLayer
 62
  256
370
   -1
100
AcDbLine
 10
-248
 20
40
 11
-246.0388386486181
 21
49.80580675690921
  0
LINE
  5
BA
100
AcDbEntity
  8
Fronten
  6
ByLayer
 62
  256
370
   -1
100
AcDbLine
 10
-248
 20
40
 11
-118
 21
40
  0
LINE
  5
BB
100
AcDbEntity
  8
Fronten
  6
ByLayer
 62
  256
370
   -1
100
AcDbLine
 10
-119.9611613513818
 20
49.80580675690921
 11
-116.0388386486181
 21
50.59027129746192
  0
LINE
  5
BC
100
AcDbEntity
  8
Fronten
  6
ByLayer
 62
  256
370
   -1
100
AcDbLine
 10
-118
 20
40
 11
-119.9611613513819
 21
49.80580675690921
  0
LINE
  5
BD
100
AcDbEntity
  8
Fronten
  6
ByLayer
 62
  256
370
   -1
100
AcDbLine
 10
-237.0174964322619
 20
94.91251783869157
 11
-240.9398191350256
 21
95.69698237924429
  0
LINE
  5
BE
100
AcDbEntity
  8
Fronten
  6
ByLayer
 62
  256
370
   -1
100
AcDbLine
 10
-249.9611613513818
 20
50.59027129746193
 11
-240.9398191350254
 21
95.69698237924426
  0
LINE
  5
BF
100
AcDbEntity
  8
Fronten
  6
ByLayer
 62
  256
370
   -1
100
AcDbLine
 10
-237.0174964322619
 20
94.91251783869157
 11
-236.0800000000002
 21
99.60000000000001
  0
LINE
  5
C0
100
AcDbEntity
  8
Fronten
  6
ByLayer
 62
  256
370
   -1
100
AcDbLine
 10
-236.0800000000002
 20
99.60000000000001
 11
-129.9199999999998
 21
99.60000000000002
  0
LINE
  5
C1
100
AcDbEntity
  8
Fronten
  6
ByLayer
 62
  256
370
   -1
100
AcDbLine
 10
-128.9825035677381
 20
94.91251783869154
 11
-125.0601808649744
 21
95.69698237924428
  0
LINE
  5
C2
100
AcDbEntity
  8
Fronten
  6
ByLayer
 62
  256
370
   -1
100
AcDbLine
 10
-116.0388386486182
 20
50.59027129746191
 11
-125.0601808649746
 21
95.69698237924425
  0
LINE
  5
C3
100
AcDbEntity
  8
Fronten
  6
ByLayer
 62
  256
370
   -1
100
AcDbLine
 10
-128.9825035677381
 20
94.91251783869154
 11
-129.9199999999998
 21
99.59999999999999
  0
INSERT
  5
C4
100
AcDbEntity
  8
Naegel
  6
ByLayer
 62
  256
370
   -1
100
AcDbBlockReference
  2
Nagel
 10
-243
 20
73
 30
0
 41
1
 42
1
 43
0
 50
0
 70
    1
 71
    1
 44
1
 45
1
  0
INSERT
  5
C5
100
AcDbEntity
  8
Naegel
  6
ByLayer
 62
  256
370
   -1
100
AcDbBlockReference
  2
Nagel
 10
-247
 20
53
 30
0
 41
1
 42
1
 43
0
 50
0
 70
    1
 71
    1
 44
1
 45
1
  0
INSERT
  5
C6
100
AcDbEntity
  8
Naegel
  6
ByLayer
 62
  256
370
   -1
100
AcDbBlockReference
  2
Nagel
 10
-239
 20
92
 30
0
 41
1
 42
1
 43
0
 50
0
 70
    1
 71
    1
 44
1
 45
1
  0
INSERT
  5
C7
100
AcDbEntity
  8
Naegel
  6
ByLayer
 62
  256
370
   -1
100
AcDbBlockReference
  2
Nagel
 10
-127
 20
92
 30
0
 41
1
 42
1
 43
0
 50
0
 70
    1
 71
    1
 44
1
 45
1
  0
INSERT
  5
C8
100
AcDbEntity
  8
Naegel
  6
ByLayer
 62
  256
370
   -1
100
AcDbBlockReference
  2
Nagel
 10
-123
 20
73
 30
0
 41
1
 42
1
 43
0
 50
0
 70
    1
 71
    1
 44
1
 45
1
  0
INSERT
  5
C9
100
AcDbEntity
  8
Naegel
  6
ByLayer
 62
  256
370
   -1
100
AcDbBlockReference
  2
Nagel
 10
-119
 20
53
 30
0
 41
1
 42
1
 43
0
 50
0
 70
    1
 71
    1
 44
1
 45
1
  0
INSERT
  5
CA
100
AcDbEntity
  8
Naegel
  6
ByLayer
 62
  256
370
   -1
100
AcDbBlockReference
  2
Nagel
 10
-240
 20
42
 30
0
 41
1
 42
1
 43
0
 50
0
 70
    1
 71
    1
 44
1
 45
1
  0
INSERT
  5
CB
100
AcDbEntity
  8
Naegel
  6
ByLayer
 62
  256
370
   -1
100
AcDbBlockReference
  2
Nagel
 10
-211
 20
42
 30
0
 41
1
 42
1
 43
0
 50
0
 70
    1
 71
    1
 44
1
 45
1
  0
INSERT
  5
CC
100
AcDbEntity
  8
Naegel
  6
ByLayer
 62
  256
370
   -1
100
AcDbBlockReference
  2
Nagel
 10
-178
 20
42
 30
0
 41
1
 42
1
 43
0
 50
0
 70
    1
 71
    1
 44
1
 45
1
  0
INSERT
  5
CD
100
AcDbEntity
  8
Naegel
  6
ByLayer
 62
  256
370
   -1
100
AcDbBlockReference
  2
Nagel
 10
-146
 20
42
 30
0
 41
1
 42
1
 43
0
 50
0
 70
    1
 71
    1
 44
1
 45
1
  0
INSERT
  5
CE
100
AcDbEntity
  8
Naegel
  6
ByLayer
 62
  256
370
   -1
100
AcDbBlockReference
  2
Nagel
 10
-124
 20
42
 30
0
 41
1
 42
1
 43
0
 50
0
 70
    1
 71
    1
 44
1
 45
1
  0
LINE
  5
CF
100
AcDbEntity
  8
Deckel
  6
ByLayer
 62
  256
370
   -1
100
AcDbLine
 10
-90
 20
43
 11
24.44879117569872
 21
43.00000000000011
  0
LINE
  5
D0
100
AcDbEntity
  8
Deckel
  6
ByLayer
 62
  256
370
   -1
100
AcDbLine
 10
-90
 20
43
 11
-90
 21
47
  0
LINE
  5
D1
100
AcDbEntity
  8
Deckel
  6
ByLayer
 62
  256
370
   -1
100
AcDbLine
 10
24.44879117569872
 20
43.00000000000011
 11
24.44879117569872
 21
47.00000000000011
  0
LINE
  5
D2
100
AcDbEntity
  8
Deckel
  6
ByLayer
 62
  256
370
   -1
100
AcDbLine
 10
24.44879117569872
 20
43.00000000000011
 11
24.44879117569872
 21
47.00000000000011
  0
LINE
  5
D3
100
AcDbEntity
  8
Deckel
  6
ByLayer
 62
  256
370
   -1
100
AcDbLine
 10
24.44879117569872
 20
47.00000000000011
 11
20.44879117569872
 21
47
  0
LINE
  5
D4
100
AcDbEntity
  8
Deckel
  6
ByLayer
 62
  256
370
   -1
100
AcDbLine
 10
24.44879117569872
 20
43.00000000000011
 11
24.44879117569872
 21
47.00000000000011
  0
LINE
  5
D5
100
AcDbEntity
  8
Deckel
  6
ByLayer
 62
  256
370
   -1
100
AcDbLine
 10
-90
 20
43
 11
-90
 21
47
  0
LINE
  5
D6
100
AcDbEntity
  8
Deckel
  6
ByLayer
 62
  256
370
   -1
100
AcDbLine
 10
-90
 20
47
 11
-86
 21
47
  0
LINE
  5
D7
100
AcDbEntity
  8
Deckel
  6
ByLayer
 62
  256
370
   -1
100
AcDbLine
 10
-90.00000000000003
 20
110
 11
24.44879117569869
 21
110.0000000000001
  0
LINE
  5
D8
100
AcDbEntity
  8
Deckel
  6
ByLayer
 62
  256
370
   -1
100
AcDbLine
 10
-90
 20
110
 11
24.44879117569869
 21
109.9999999999999
  0
LINE
  5
D9
100
AcDbEntity
  8
Deckel
  6
ByLayer
 62
  256
370
   -1
100
AcDbLine
 10
-90
 20
110
 11
-90
 21
106
  0
LINE
  5
DA
100
AcDbEntity
  8
Deckel
  6
ByLayer
 62
  256
370
   -1
100
AcDbLine
 10
-86
 20
106
 11
-86
 21
92
  0
LINE
  5
DB
100
AcDbEntity
  8
Deckel
  6
ByLayer
 62
  256
370
   -1
100
AcDbLine
 10
24.44879117569869
 20
109.9999999999999
 11
24.44879117569869
 21
105.9999999999999
  0
LINE
  5
DC
100
AcDbEntity
  8
Deckel
  6
ByLayer
 62
  256
370
   -1
100
AcDbLine
 10
24.44879117569869
 20
109.9999999999999
 11
24.44879117569869
 21
105.9999999999999
  0
LINE
  5
DD
100
AcDbEntity
  8
Deckel
  6
ByLayer
 62
  256
370
   -1
100
AcDbLine
 10
20.44879117569869
 20
106
 11
20.44879117569869
 21
100
  0
LINE
  5
DE
100
AcDbEntity
  8
Deckel
  6
ByLayer
 62
  256
370
   -1
100
AcDbLine
 10
24.44879117569869
 20
105.9999999999999
 11
20.44879117569869
 21
106
  0
LINE
  5
DF
100
AcDbEntity
  8
Deckel
  6
ByLayer
 62
  256
370
   -1
100
AcDbLine
 10
24.44879117569869
 20
109.9999999999999
 11
24.44879117569869
 21
105.9999999999999
  0
LINE
  5
E0
100
AcDbEntity
  8
Deckel
  6
ByLayer
 62
  256
370
   -1
100
AcDbLine
 10
-90
 20
106
 11
-86
 21
106
  0
LINE
  5
E1
100
AcDbEntity
  8
Deckel
  6
ByLayer
 62
  256
370
   -1
100
AcDbLine
 10
-86
 20
47
 11
-86
 21
106
  0
LINE
  5
E2
100
AcDbEntity
  8
Deckel
  6
ByLayer
 62
  256
370
   -1
100
AcDbLine
 10
20.44879117569872
 20
47
 11
20.44879117569872
 21
106
  0
LINE
  5
E3
100
AcDbEntity
  8
Living Hinge
  6
ByLayer
 62
  256
370
   -1
100
AcDbLine
 10
-23.0239375000001
 20
45.5263218537188
 11
-33.81921874999972
 21
45.5263218537188
  0
LINE
  5
E4
100
AcDbEntity
  8
Living Hinge
  6
ByLayer
 62
  256
370
   -1
100
AcDbLine
 10
-37.4185937499997
 20
45.5263218537188
 11
-51.21362500000009
 21
45.5263218537188
  0
LINE
  5
E5
100
AcDbEntity
  8
Living Hinge
  6
ByLayer
 62
  256
370
   -1
100
AcDbLine
 10
-54.81300000000005
 20
45.5263218537188
 11
-68.60803124999984
 21
45.5263218537188
  0
LINE
  5
E6
100
AcDbEntity
  8
Living Hinge
  6
ByLayer
 62
  256
370
   -1
100
AcDbLine
 10
-72.20496875000021
 20
45.5263218537188
 11
-83.00268750000004
 21
45.5263218537188
  0
LINE
  5
E7
100
AcDbEntity
  8
Living Hinge
  6
ByLayer
 62
  256
370
   -1
100
AcDbLine
 10
-23.02125000000007
 20
107.7699794
 11
-33.81653124999968
 21
107.7699794
  0
LINE
  5
E8
100
AcDbEntity
  8
Living Hinge
  6
ByLayer
 62
  256
370
   -1
100
AcDbLine
 10
-37.41590624999967
 20
107.7699794
 11
-51.21093750000006
 21
107.7699794
  0
LINE
  5
E9
100
AcDbEntity
  8
Living Hinge
  6
ByLayer
 62
  256
370
   -1
100
AcDbLine
 10
-54.81031250000001
 20
107.7699794
 11
-68.6053437499998
 21
107.7699794
  0
LINE
  5
EA
100
AcDbEntity
  8
Living Hinge
  6
ByLayer
 62
  256
370
   -1
100
AcDbLine
 10
-72.20228125000017
 20
107.7699794
 11
-83
 21
107.7699794
  0
LINE
  5
EB
100
AcDbEntity
  8
Living Hinge
  6
ByLayer
 62
  256
370
   -1
100
AcDbLine
 10
14.97378125
 20
107.7990143629684
 11
1.18078125000028
 21
107.7990143629684
  0
LINE
  5
EC
100
AcDbEntity
  8
Living Hinge
  6
ByLayer
 62
  256
370
   -1
100
AcDbLine
 10
-2.418593749999673
 20
107.7990143629684
 11
-16.21362500000009
 21
107.7990143629684
  0
LINE
  5
ED
100
AcDbEntity
  8
Living Hinge
  6
ByLayer
 62
  256
370
   -1
100
AcDbLine
 10
-20.02353124999996
 20
107.7699794
 11
-33.81653124999968
 21
107.7699794
  0
LINE
  5
EE
100
AcDbEntity
  8
Living Hinge
  6
ByLayer
 62
  256
370
   -1
100
AcDbLine
 10
-23.0239375000001
 20
45.5263218537188
 11
-33.81921874999972
 21
45.5263218537188
  0
LINE
  5
EF
100
AcDbEntity
  8
Living Hinge
  6
ByLayer
 62
  256
370
   -1
100
AcDbLine
 10
-37.4185937499997
 20
45.5263218537188
 11
-51.21362500000009
 21
45.5263218537188
  0
LINE
  5
F0
100
AcDbEntity
  8
Living Hinge
  6
ByLayer
 62
  256
370
   -1
100
AcDbLine
 10
-54.81300000000005
 20
45.5263218537188
 11
-68.60803124999984
 21
45.5263218537188
  0
LINE
  5
F1
100
AcDbEntity
  8
Living Hinge
  6
ByLayer
 62
  256
370
   -1
100
AcDbLine
 10
-72.20496875000021
 20
45.5263218537188
 11
-83.00268750000004
 21
45.5263218537188
  0
LINE
  5
F2
100
AcDbEntity
  8
Living Hinge
  6
ByLayer
 62
  256
370
   -1
100
AcDbLine
 10
14.97109374999997
 20
45.55535681668721
 11
1.178093750000244
 21
45.55535681668721
  0
LINE
  5
F3
100
AcDbEntity
  8
Living Hinge
  6
ByLayer
 62
  256
370
   -1
100
AcDbLine
 10
-2.421281249999709
 20
45.55535681668721
 11
-16.21631250000013
 21
45.55535681668721
  0
LINE
  5
F4
100
AcDbEntity
  8
Living Hinge
  6
ByLayer
 62
  256
370
   -1
100
AcDbLine
 10
-20.02621875
 20
45.5263218537188
 11
-33.81921874999972
 21
45.5263218537188
  0
LINE
  5
F5
100
AcDbEntity
  8
Living Hinge
  6
ByLayer
 62
  256
370
   -1
100
AcDbLine
 10
-47.35201034375009
 20
47
 11
-60.7193956249999
 21
47
  0
LINE
  5
F6
100
AcDbEntity
  8
Living Hinge
  6
ByLayer
 62
  256
370
   -1
100
AcDbLine
 10
-64.20718999999988
 20
47
 11
-77.57457528125023
 21
47
  0
LINE
  5
F7
100
AcDbEntity
  8
Living Hinge
  6
ByLayer
 62
  256
370
   -1
100
AcDbLine
 10
-30.4972243437499
 20
47
 11
-43.86460962500026
 21
47
  0
LINE
  5
F8
100
AcDbEntity
  8
Living Hinge
  6
ByLayer
 62
  256
370
   -1
100
AcDbLine
 10
-81.06000771875004
 20
47
 11
-86
 21
47
  0
LINE
  5
F9
100
AcDbEntity
  8
Living Hinge
  6
ByLayer
 62
  256
370
   -1
100
AcDbLine
 10
-47.35201034375009
 20
49.94815525062469
 11
-60.7193956249999
 21
49.94815525062469
  0
LINE
  5
FA
100
AcDbEntity
  8
Living Hinge
  6
ByLayer
 62
  256
370
   -1
100
AcDbLine
 10
-64.20718999999988
 20
49.94815525062469
 11
-77.57457528125023
 21
49.94815525062469
  0
LINE
  5
FB
100
AcDbEntity
  8
Living Hinge
  6
ByLayer
 62
  256
370
   -1
100
AcDbLine
 10
-30.4972243437499
 20
49.94815525062469
 11
-43.86460962500026
 21
49.94815525062469
  0
LINE
  5
FC
100
AcDbEntity
  8
Living Hinge
  6
ByLayer
 62
  256
370
   -1
100
AcDbLine
 10
-81.06000771875004
 20
49.94815525062469
 11
-86
 21
49.94815525062469
  0
LINE
  5
FD
100
AcDbEntity
  8
Living Hinge
  6
ByLayer
 62
  256
370
   -1
100
AcDbLine
 10
-22.07140596875
 20
48.47367814628129
 11
-35.43682296874973
 21
48.47367814628129
  0
LINE
  5
FE
100
AcDbEntity
  8
Living Hinge
  6
ByLayer
 62
  256
370
   -1
100
AcDbLine
 10
-38.92461734374971
 20
48.47367814628129
 11
-52.29200262500009
 21
48.47367814628129
  0
LINE
  5
FF
100
AcDbEntity
  8
Living Hinge
  6
ByLayer
 62
  256
370
   -1
100
AcDbLine
 10
-55.77979700000004
 20
48.47367814628129
 11
-69.14718228124984
 21
48.47367814628129
  0
LINE
  5
100
100
AcDbEntity
  8
Living Hinge
  6
ByLayer
 62
  256
370
   -1
100
AcDbLine
 10
-72.6326147187502
 20
48.47367814628129
 11
-86
 21
48.47367814628129
  0
LINE
  5
101
100
AcDbEntity
  8
Living Hinge
  6
ByLayer
 62
  256
370
   -1
100
AcDbLine
 10
-47.35201034375009
 20
52.89750893834349
 11
-60.7193956249999
 21
52.89750893834349
  0
LINE
  5
102
100
AcDbEntity
  8
Living Hinge
  6
ByLayer
 62
  256
370
   -1
100
AcDbLine
 10
-64.20718999999988
 20
52.89750893834349
 11
-77.57457528125023
 21
52.89750893834349
  0
LINE
  5
103
100
AcDbEntity
  8
Living Hinge
  6
ByLayer
 62
  256
370
   -1
100
AcDbLine
 10
-30.4972243437499
 20
52.89750893834349
 11
-43.86460962500026
 21
52.89750893834349
  0
LINE
  5
104
100
AcDbEntity
  8
Living Hinge
  6
ByLayer
 62
  256
370
   -1
100
AcDbLine
 10
-81.06000771875004
 20
52.89750893834349
 11
-86
 21
52.89750893834349
  0
LINE
  5
105
100
AcDbEntity
  8
Living Hinge
  6
ByLayer
 62
  256
370
   -1
100
AcDbLine
 10
-22.07140596875
 20
51.4238307920622
 11
-35.43682296874973
 21
51.4238307920622
  0
LINE
  5
106
100
AcDbEntity
  8
Living Hinge
  6
ByLayer
 62
  256
370
   -1
100
AcDbLine
 10
-38.92461734374971
 20
51.4238307920622
 11
-52.29200262500009
 21
51.4238307920622
  0
LINE
  5
107
100
AcDbEntity
  8
Living Hinge
  6
ByLayer
 62
  256
370
   -1
100
AcDbLine
 10
-55.77979700000004
 20
51.4238307920622
 11
-69.14718228124984
 21
51.4238307920622
  0
LINE
  5
108
100
AcDbEntity
  8
Living Hinge
  6
ByLayer
 62
  256
370
   -1
100
AcDbLine
 10
-72.6326147187502
 20
51.4238307920622
 11
-86
 21
51.4238307920622
  0
LINE
  5
109
100
AcDbEntity
  8
Living Hinge
  6
ByLayer
 62
  256
370
   -1
100
AcDbLine
 10
-47.35201034375009
 20
55.8448652309059
 11
-60.7193956249999
 21
55.8448652309059
  0
LINE
  5
10A
100
AcDbEntity
  8
Living Hinge
  6
ByLayer
 62
  256
370
   -1
100
AcDbLine
 10
-64.20718999999988
 20
55.8448652309059
 11
-77.57457528125023
 21
55.8448652309059
  0
LINE
  5
10B
100
AcDbEntity
  8
Living Hinge
  6
ByLayer
 62
  256
370
   -1
100
AcDbLine
 10
-30.4972243437499
 20
55.8448652309059
 11
-43.86460962500026
 21
55.8448652309059
  0
LINE
  5
10C
100
AcDbEntity
  8
Living Hinge
  6
ByLayer
 62
  256
370
   -1
100
AcDbLine
 10
-81.06000771875004
 20
55.8448652309059
 11
-86
 21
55.8448652309059
  0
LINE
  5
10D
100
AcDbEntity
  8
Living Hinge
  6
ByLayer
 62
  256
370
   -1
100
AcDbLine
 10
-22.07140596875
 20
54.37118708462469
 11
-35.43682296874973
 21
54.37118708462469
  0
LINE
  5
10E
100
AcDbEntity
  8
Living Hinge
  6
ByLayer
 62
  256
370
   -1
100
AcDbLine
 10
-38.92461734374971
 20
54.37118708462469
 11
-52.29200262500009
 21
54.37118708462469
  0
LINE
  5
10F
100
AcDbEntity
  8
Living Hinge
  6
ByLayer
 62
  256
370
   -1
100
AcDbLine
 10
-55.77979700000004
 20
54.37118708462469
 11
-69.14718228124984
 21
54.37118708462469
  0
LINE
  5
110
100
AcDbEntity
  8
Living Hinge
  6
ByLayer
 62
  256
370
   -1
100
AcDbLine
 10
-72.6326147187502
 20
54.37118708462469
 11
-86
 21
54.37118708462469
  0
LINE
  5
111
100
AcDbEntity
  8
Living Hinge
  6
ByLayer
 62
  256
370
   -1
100
AcDbLine
 10
-47.35201034375009
 20
58.79461839765611
 11
-60.7193956249999
 21
58.79461839765611
  0
LINE
  5
112
100
AcDbEntity
  8
Living Hinge
  6
ByLayer
 62
  256
370
   -1
100
AcDbLine
 10
-64.20718999999988
 20
58.79461839765611
 11
-77.57457528125023
 21
58.79461839765611
  0
LINE
  5
113
100
AcDbEntity
  8
Living Hinge
  6
ByLayer
 62
  256
370
   -1
100
AcDbLine
 10
-30.4972243437499
 20
58.79461839765611
 11
-43.86460962500026
 21
58.79461839765611
  0
LINE
  5
114
100
AcDbEntity
  8
Living Hinge
  6
ByLayer
 62
  256
370
   -1
100
AcDbLine
 10
-81.06000771875004
 20
58.79461839765611
 11
-86
 21
58.79461839765611
  0
LINE
  5
115
100
AcDbEntity
  8
Living Hinge
  6
ByLayer
 62
  256
370
   -1
100
AcDbLine
 10
-22.07140596875
 20
57.32094025137491
 11
-35.43682296874973
 21
57.32094025137491
  0
LINE
  5
116
100
AcDbEntity
  8
Living Hinge
  6
ByLayer
 62
  256
370
   -1
100
AcDbLine
 10
-38.92461734374971
 20
57.32094025137491
 11
-52.29200262500009
 21
57.32094025137491
  0
LINE
  5
117
100
AcDbEntity
  8
Living Hinge
  6
ByLayer
 62
  256
370
   -1
100
AcDbLine
 10
-55.77979700000004
 20
57.32094025137491
 11
-69.14718228124984
 21
57.32094025137491
  0
LINE
  5
118
100
AcDbEntity
  8
Living Hinge
  6
ByLayer
 62
  256
370
   -1
100
AcDbLine
 10
-72.6326147187502
 20
57.32094025137491
 11
-86
 21
57.32094025137491
  0
LINE
  5
119
100
AcDbEntity
  8
Living Hinge
  6
ByLayer
 62
  256
370
   -1
100
AcDbLine
 10
-47.35201034375009
 20
61.74197469021863
 11
-60.7193956249999
 21
61.74197469021863
  0
LINE
  5
11A
100
AcDbEntity
  8
Living Hinge
  6
ByLayer
 62
  256
370
   -1
100
AcDbLine
 10
-64.20718999999988
 20
61.74197469021863
 11
-77.57457528125023
 21
61.74197469021863
  0
LINE
  5
11B
100
AcDbEntity
  8
Living Hinge
  6
ByLayer
 62
  256
370
   -1
100
AcDbLine
 10
-30.4972243437499
 20
61.74197469021863
 11
-43.86460962500026
 21
61.74197469021863
  0
LINE
  5
11C
100
AcDbEntity
  8
Living Hinge
  6
ByLayer
 62
  256
370
   -1
100
AcDbLine
 10
-81.06000771875004
 20
61.74197469021863
 11
-86
 21
61.74197469021863
  0
LINE
  5
11D
100
AcDbEntity
  8
Living Hinge
  6
ByLayer
 62
  256
370
   -1
100
AcDbLine
 10
-22.07140596875
 20
60.26829654393731
 11
-35.43682296874973
 21
60.26829654393731
  0
LINE
  5
11E
100
AcDbEntity
  8
Living Hinge
  6
ByLayer
 62
  256
370
   -1
100
AcDbLine
 10
-38.92461734374971
 20
60.26829654393731
 11
-52.29200262500009
 21
60.26829654393742
  0
LINE
  5
11F
100
AcDbEntity
  8
Living Hinge
  6
ByLayer
 62
  256
370
   -1
100
AcDbLine
 10
-55.77979700000004
 20
60.26829654393742
 11
-69.14718228124984
 21
60.26829654393742
  0
LINE
  5
120
100
AcDbEntity
  8
Living Hinge
  6
ByLayer
 62
  256
370
   -1
100
AcDbLine
 10
-72.6326147187502
 20
60.26829654393742
 11
-86
 21
60.26829654393742
  0
LINE
  5
121
100
AcDbEntity
  8
Living Hinge
  6
ByLayer
 62
  256
370
   -1
100
AcDbLine
 10
-47.35201034375009
 20
64.69212733599949
 11
-60.7193956249999
 21
64.69212733599949
  0
LINE
  5
122
100
AcDbEntity
  8
Living Hinge
  6
ByLayer
 62
  256
370
   -1
100
AcDbLine
 10
-64.20718999999988
 20
64.69212733599949
 11
-77.57457528125023
 21
64.69212733599949
  0
LINE
  5
123
100
AcDbEntity
  8
Living Hinge
  6
ByLayer
 62
  256
370
   -1
100
AcDbLine
 10
-30.4972243437499
 20
64.69212733599949
 11
-43.86460962500026
 21
64.69212733599949
  0
LINE
  5
124
100
AcDbEntity
  8
Living Hinge
  6
ByLayer
 62
  256
370
   -1
100
AcDbLine
 10
-81.06000771875004
 20
64.69212733599949
 11
-86
 21
64.69212733599949
  0
LINE
  5
125
100
AcDbEntity
  8
Living Hinge
  6
ByLayer
 62
  256
370
   -1
100
AcDbLine
 10
-22.07140596875
 20
63.21804971068752
 11
-35.43682296874973
 21
63.21804971068752
  0
LINE
  5
126
100
AcDbEntity
  8
Living Hinge
  6
ByLayer
 62
  256
370
   -1
100
AcDbLine
 10
-38.92461734374971
 20
63.21804971068752
 11
-52.29200262500009
 21
63.21804971068752
  0
LINE
  5
127
100
AcDbEntity
  8
Living Hinge
  6
ByLayer
 62
  256
370
   -1
100
AcDbLine
 10
-55.77979700000004
 20
63.21804971068752
 11
-69.14718228124984
 21
63.21804971068752
  0
LINE
  5
128
100
AcDbEntity
  8
Living Hinge
  6
ByLayer
 62
  256
370
   -1
100
AcDbLine
 10
-72.6326147187502
 20
63.21804971068752
 11
-86
 21
63.21804971068752
  0
LINE
  5
129
100
AcDbEntity
  8
Living Hinge
  6
ByLayer
 62
  256
370
   -1
100
AcDbLine
 10
-47.35201034375009
 20
67.64148102371843
 11
-60.7193956249999
 21
67.64148102371843
  0
LINE
  5
12A
100
AcDbEntity
  8
Living Hinge
  6
ByLayer
 62
  256
370
   -1
100
AcDbLine
 10
-64.20718999999988
 20
67.64148102371843
 11
-77.57457528125023
 21
67.64148102371843
  0
LINE
  5
12B
100
AcDbEntity
  8
Living Hinge
  6
ByLayer
 62
  256
370
   -1
100
AcDbLine
 10
-30.4972243437499
 20
67.64148102371831
 11
-43.86460962500026
 21
67.64148102371843
  0
LINE
  5
12C
100
AcDbEntity
  8
Living Hinge
  6
ByLayer
 62
  256
370
   -1
100
AcDbLine
 10
-81.06000771875004
 20
67.64148102371843
 11
-86
 21
67.64148102371843
  0
LINE
  5
12D
100
AcDbEntity
  8
Living Hinge
  6
ByLayer
 62
  256
370
   -1
100
AcDbLine
 10
-22.07140596875
 20
66.16580548228131
 11
-35.43682296874973
 21
66.16580548228131
  0
LINE
  5
12E
100
AcDbEntity
  8
Living Hinge
  6
ByLayer
 62
  256
370
   -1
100
AcDbLine
 10
-38.92461734374971
 20
66.16580548228131
 11
-52.29200262500009
 21
66.16580548228131
  0
LINE
  5
12F
100
AcDbEntity
  8
Living Hinge
  6
ByLayer
 62
  256
370
   -1
100
AcDbLine
 10
-55.77979700000004
 20
66.16580548228131
 11
-69.14718228124984
 21
66.16580548228131
  0
LINE
  5
130
100
AcDbEntity
  8
Living Hinge
  6
ByLayer
 62
  256
370
   -1
100
AcDbLine
 10
-72.6326147187502
 20
66.16580548228131
 11
-86
 21
66.16580548228131
  0
LINE
  5
131
100
AcDbEntity
  8
Living Hinge
  6
ByLayer
 62
  256
370
   -1
100
AcDbLine
 10
-47.35201034375009
 20
70.58923679531222
 11
-60.7193956249999
 21
70.58923679531222
  0
LINE
  5
132
100
AcDbEntity
  8
Living Hinge
  6
ByLayer
 62
  256
370
   -1
100
AcDbLine
 10
-64.20718999999988
 20
70.58923679531222
 11
-77.57457528125023
 21
70.58923679531222
  0
LINE
  5
133
100
AcDbEntity
  8
Living Hinge
  6
ByLayer
 62
  256
370
   -1
100
AcDbLine
 10
-30.4972243437499
 20
70.58923679531222
 11
-43.86460962500026
 21
70.58923679531222
  0
LINE
  5
134
100
AcDbEntity
  8
Living Hinge
  6
ByLayer
 62
  256
370
   -1
100
AcDbLine
 10
-81.06000771875004
 20
70.58923679531222
 11
-86
 21
70.58923679531222
  0
LINE
  5
135
100
AcDbEntity
  8
Living Hinge
  6
ByLayer
 62
  256
370
   -1
100
AcDbLine
 10
-22.07140596875
 20
69.11515916999957
 11
-35.43682296874973
 21
69.11515916999957
  0
LINE
  5
136
100
AcDbEntity
  8
Living Hinge
  6
ByLayer
 62
  256
370
   -1
100
AcDbLine
 10
-38.92461734374971
 20
69.11515916999957
 11
-52.29200262500009
 21
69.11515916999957
  0
LINE
  5
137
100
AcDbEntity
  8
Living Hinge
  6
ByLayer
 62
  256
370
   -1
100
AcDbLine
 10
-55.77979700000004
 20
69.11515916999957
 11
-69.14718228124984
 21
69.11515916999957
  0
LINE
  5
138
100
AcDbEntity
  8
Living Hinge
  6
ByLayer
 62
  256
370
   -1
100
AcDbLine
 10
-72.6326147187502
 20
69.11515916999957
 11
-86
 21
69.11515916999957
  0
LINE
  5
139
100
AcDbEntity
  8
Living Hinge
  6
ByLayer
 62
  256
370
   -1
100
AcDbLine
 10
-47.35201034375009
 20
73.53659308787462
 11
-60.7193956249999
 21
73.53659308787462
  0
LINE
  5
13A
100
AcDbEntity
  8
Living Hinge
  6
ByLayer
 62
  256
370
   -1
100
AcDbLine
 10
-64.20718999999988
 20
73.53659308787462
 11
-77.57457528125023
 21
73.53659308787462
  0
LINE
  5
13B
100
AcDbEntity
  8
Living Hinge
  6
ByLayer
 62
  256
370
   -1
100
AcDbLine
 10
-30.4972243437499
 20
73.53659308787462
 11
-43.86460962500026
 21
73.53659308787462
  0
LINE
  5
13C
100
AcDbEntity
  8
Living Hinge
  6
ByLayer
 62
  256
370
   -1
100
AcDbLine
 10
-81.06000771875004
 20
73.53659308787462
 11
-86
 21
73.53659308787462
  0
LINE
  5
13D
100
AcDbEntity
  8
Living Hinge
  6
ByLayer
 62
  256
370
   -1
100
AcDbLine
 10
-22.07140596875
 20
72.06291494159342
 11
-35.43682296874973
 21
72.06291494159342
  0
LINE
  5
13E
100
AcDbEntity
  8
Living Hinge
  6
ByLayer
 62
  256
370
   -1
100
AcDbLine
 10
-38.92461734374971
 20
72.06291494159342
 11
-52.29200262500009
 21
72.06291494159342
  0
LINE
  5
13F
100
AcDbEntity
  8
Living Hinge
  6
ByLayer
 62
  256
370
   -1
100
AcDbLine
 10
-55.77979700000004
 20
72.06291494159342
 11
-69.14718228124984
 21
72.06291494159342
  0
LINE
  5
140
100
AcDbEntity
  8
Living Hinge
  6
ByLayer
 62
  256
370
   -1
100
AcDbLine
 10
-72.6326147187502
 20
72.06291494159342
 11
-86
 21
72.06291494159342
  0
LINE
  5
141
100
AcDbEntity
  8
Living Hinge
  6
ByLayer
 62
  256
370
   -1
100
AcDbLine
 10
-47.35201034375009
 20
76.48674573365622
 11
-60.7193956249999
 21
76.48674573365622
  0
LINE
  5
142
100
AcDbEntity
  8
Living Hinge
  6
ByLayer
 62
  256
370
   -1
100
AcDbLine
 10
-64.20718999999988
 20
76.48674573365622
 11
-77.57457528125023
 21
76.48674573365622
  0
LINE
  5
143
100
AcDbEntity
  8
Living Hinge
  6
ByLayer
 62
  256
370
   -1
100
AcDbLine
 10
-30.4972243437499
 20
76.48674573365622
 11
-43.86460962500026
 21
76.48674573365622
  0
LINE
  5
144
100
AcDbEntity
  8
Living Hinge
  6
ByLayer
 62
  256
370
   -1
100
AcDbLine
 10
-81.06000771875004
 20
76.48674573365622
 11
-86
 21
76.48674573365622
  0
LINE
  5
145
100
AcDbEntity
  8
Living Hinge
  6
ByLayer
 62
  256
370
   -1
100
AcDbLine
 10
-22.07140596875
 20
75.01266810834358
 11
-35.43682296874973
 21
75.01266810834358
  0
LINE
  5
146
100
AcDbEntity
  8
Living Hinge
  6
ByLayer
 62
  256
370
   -1
100
AcDbLine
 10
-38.92461734374971
 20
75.01266810834358
 11
-52.29200262500009
 21
75.01266810834358
  0
LINE
  5
147
100
AcDbEntity
  8
Living Hinge
  6
ByLayer
 62
  256
370
   -1
100
AcDbLine
 10
-55.77979700000004
 20
75.01266810834358
 11
-69.14718228124984
 21
75.01266810834358
  0
LINE
  5
148
100
AcDbEntity
  8
Living Hinge
  6
ByLayer
 62
  256
370
   -1
100
AcDbLine
 10
-72.6326147187502
 20
75.01266810834358
 11
-86
 21
75.01266810834358
  0
LINE
  5
149
100
AcDbEntity
  8
Living Hinge
  6
ByLayer
 62
  256
370
   -1
100
AcDbLine
 10
-47.35201034375009
 20
79.43410202621862
 11
-60.7193956249999
 21
79.43410202621862
  0
LINE
  5
14A
100
AcDbEntity
  8
Living Hinge
  6
ByLayer
 62
  256
370
   -1
100
AcDbLine
 10
-64.20718999999988
 20
79.43410202621862
 11
-77.57457528125023
 21
79.43410202621862
  0
LINE
  5
14B
100
AcDbEntity
  8
Living Hinge
  6
ByLayer
 62
  256
370
   -1
100
AcDbLine
 10
-30.4972243437499
 20
79.43410202621862
 11
-43.86460962500026
 21
79.43410202621862
  0
LINE
  5
14C
100
AcDbEntity
  8
Living Hinge
  6
ByLayer
 62
  256
370
   -1
100
AcDbLine
 10
-81.06000771875004
 20
79.43410202621862
 11
-86
 21
79.43410202621862
  0
LINE
  5
14D
100
AcDbEntity
  8
Living Hinge
  6
ByLayer
 62
  256
370
   -1
100
AcDbLine
 10
-22.07140596875
 20
77.96042387993742
 11
-35.43682296874973
 21
77.96042387993742
  0
LINE
  5
14E
100
AcDbEntity
  8
Living Hinge
  6
ByLayer
 62
  256
370
   -1
100
AcDbLine
 10
-38.92461734374971
 20
77.96042387993742
 11
-52.29200262500009
 21
77.96042387993742
  0
LINE
  5
14F
100
AcDbEntity
  8
Living Hinge
  6
ByLayer
 62
  256
370
   -1
100
AcDbLine
 10
-55.77979700000004
 20
77.96042387993742
 11
-69.14718228124984
 21
77.96042387993742
  0
LINE
  5
150
100
AcDbEntity
  8
Living Hinge
  6
ByLayer
 62
  256
370
   -1
100
AcDbLine
 10
-72.6326147187502
 20
77.96042387993742
 11
-86
 21
77.96042387993742
  0
LINE
  5
151
100
AcDbEntity
  8
Living Hinge
  6
ByLayer
 62
  256
370
   -1
100
AcDbLine
 10
-47.35201034375009
 20
82.38345571393751
 11
-60.7193956249999
 21
82.38345571393751
  0
LINE
  5
152
100
AcDbEntity
  8
Living Hinge
  6
ByLayer
 62
  256
370
   -1
100
AcDbLine
 10
-64.20718999999988
 20
82.38345571393751
 11
-77.57457528125023
 21
82.38345571393751
  0
LINE
  5
153
100
AcDbEntity
  8
Living Hinge
  6
ByLayer
 62
  256
370
   -1
100
AcDbLine
 10
-30.4972243437499
 20
82.38345571393751
 11
-43.86460962500026
 21
82.38345571393751
  0
LINE
  5
154
100
AcDbEntity
  8
Living Hinge
  6
ByLayer
 62
  256
370
   -1
100
AcDbLine
 10
-81.06000771875004
 20
82.38345571393751
 11
-86
 21
82.38345571393751
  0
LINE
  5
155
100
AcDbEntity
  8
Living Hinge
  6
ByLayer
 62
  256
370
   -1
100
AcDbLine
 10
-22.07140596875
 20
80.90977756765619
 11
-35.43682296874973
 21
80.90977756765619
  0
LINE
  5
156
100
AcDbEntity
  8
Living Hinge
  6
ByLayer
 62
  256
370
   -1
100
AcDbLine
 10
-38.92461734374971
 20
80.90977756765619
 11
-52.29200262500009
 21
80.90977756765619
  0
LINE
  5
157
100
AcDbEntity
  8
Living Hinge
  6
ByLayer
 62
  256
370
   -1
100
AcDbLine
 10
-55.77979700000004
 20
80.90977756765619
 11
-69.14718228124984
 21
80.90977756765619
  0
LINE
  5
158
100
AcDbEntity
  8
Living Hinge
  6
ByLayer
 62
  256
370
   -1
100
AcDbLine
 10
-72.6326147187502
 20
80.90977756765619
 11
-86
 21
80.90977756765619
  0
LINE
  5
159
100
AcDbEntity
  8
Living Hinge
  6
ByLayer
 62
  256
370
   -1
100
AcDbLine
 10
-47.35201034375009
 20
85.3312114855313
 11
-60.7193956249999
 21
85.3312114855313
  0
LINE
  5
15A
100
AcDbEntity
  8
Living Hinge
  6
ByLayer
 62
  256
370
   -1
100
AcDbLine
 10
-64.20718999999988
 20
85.3312114855313
 11
-77.57457528125023
 21
85.3312114855313
  0
LINE
  5
15B
100
AcDbEntity
  8
Living Hinge
  6
ByLayer
 62
  256
370
   -1
100
AcDbLine
 10
-30.4972243437499
 20
85.3312114855313
 11
-43.86460962500026
 21
85.3312114855313
  0
LINE
  5
15C
100
AcDbEntity
  8
Living Hinge
  6
ByLayer
 62
  256
370
   -1
100
AcDbLine
 10
-81.06000771875004
 20
85.3312114855313
 11
-86
 21
85.3312114855313
  0
LINE
  5
15D
100
AcDbEntity
  8
Living Hinge
  6
ByLayer
 62
  256
370
   -1
100
AcDbLine
 10
-22.07140596875
 20
83.85753333924998
 11
-35.43682296874973
 21
83.85753333924998
  0
LINE
  5
15E
100
AcDbEntity
  8
Living Hinge
  6
ByLayer
 62
  256
370
   -1
100
AcDbLine
 10
-38.92461734374971
 20
83.85753333924998
 11
-52.29200262500009
 21
83.85753333924998
  0
LINE
  5
15F
100
AcDbEntity
  8
Living Hinge
  6
ByLayer
 62
  256
370
   -1
100
AcDbLine
 10
-55.77979700000004
 20
83.85753333924998
 11
-69.14718228124984
 21
83.8575333392501
  0
LINE
  5
160
100
AcDbEntity
  8
Living Hinge
  6
ByLayer
 62
  256
370
   -1
100
AcDbLine
 10
-72.6326147187502
 20
83.8575333392501
 11
-86
 21
83.8575333392501
  0
LINE
  5
161
100
AcDbEntity
  8
Living Hinge
  6
ByLayer
 62
  256
370
   -1
100
AcDbLine
 10
-47.35201034375009
 20
88.28096465228089
 11
-60.7193956249999
 21
88.28096465228089
  0
LINE
  5
162
100
AcDbEntity
  8
Living Hinge
  6
ByLayer
 62
  256
370
   -1
100
AcDbLine
 10
-64.20718999999988
 20
88.28096465228089
 11
-77.57457528125023
 21
88.28096465228089
  0
LINE
  5
163
100
AcDbEntity
  8
Living Hinge
  6
ByLayer
 62
  256
370
   -1
100
AcDbLine
 10
-30.4972243437499
 20
88.28096465228089
 11
-43.86460962500026
 21
88.28096465228089
  0
LINE
  5
164
100
AcDbEntity
  8
Living Hinge
  6
ByLayer
 62
  256
370
   -1
100
AcDbLine
 10
-81.06000771875004
 20
88.28096465228089
 11
-86
 21
88.28096465228089
  0
LINE
  5
165
100
AcDbEntity
  8
Living Hinge
  6
ByLayer
 62
  256
370
   -1
100
AcDbLine
 10
-22.07140596875
 20
86.80728650599963
 11
-35.43682296874973
 21
86.80728650599963
  0
LINE
  5
166
100
AcDbEntity
  8
Living Hinge
  6
ByLayer
 62
  256
370
   -1
100
AcDbLine
 10
-38.92461734374971
 20
86.80728650599963
 11
-52.29200262500009
 21
86.80728650599963
  0
LINE
  5
167
100
AcDbEntity
  8
Living Hinge
  6
ByLayer
 62
  256
370
   -1
100
AcDbLine
 10
-55.77979700000004
 20
86.80728650599963
 11
-69.14718228124984
 21
86.80728650599963
  0
LINE
  5
168
100
AcDbEntity
  8
Living Hinge
  6
ByLayer
 62
  256
370
   -1
100
AcDbLine
 10
-72.6326147187502
 20
86.80728650599963
 11
-86
 21
86.80728650599963
  0
LINE
  5
169
100
AcDbEntity
  8
Living Hinge
  6
ByLayer
 62
  256
370
   -1
100
AcDbLine
 10
-47.35201034375009
 20
91.22872042387468
 11
-60.7193956249999
 21
91.22872042387468
  0
LINE
  5
16A
100
AcDbEntity
  8
Living Hinge
  6
ByLayer
 62
  256
370
   -1
100
AcDbLine
 10
-64.20718999999988
 20
91.22872042387468
 11
-77.57457528125023
 21
91.22872042387468
  0
LINE
  5
16B
100
AcDbEntity
  8
Living Hinge
  6
ByLayer
 62
  256
370
   -1
100
AcDbLine
 10
-30.4972243437499
 20
91.22872042387468
 11
-43.86460962500026
 21
91.22872042387468
  0
LINE
  5
16C
100
AcDbEntity
  8
Living Hinge
  6
ByLayer
 62
  256
370
   -1
100
AcDbLine
 10
-81.06000771875004
 20
91.22872042387468
 11
-86
 21
91.22872042387468
  0
LINE
  5
16D
100
AcDbEntity
  8
Living Hinge
  6
ByLayer
 62
  256
370
   -1
100
AcDbLine
 10
-22.07140596875
 20
89.75504227759347
 11
-35.43682296874973
 21
89.75504227759347
  0
LINE
  5
16E
100
AcDbEntity
  8
Living Hinge
  6
ByLayer
 62
  256
370
   -1
100
AcDbLine
 10
-38.92461734374971
 20
89.75504227759347
 11
-52.29200262500009
 21
89.75504227759347
  0
LINE
  5
16F
100
AcDbEntity
  8
Living Hinge
  6
ByLayer
 62
  256
370
   -1
100
AcDbLine
 10
-55.77979700000004
 20
89.75504227759347
 11
-69.14718228124984
 21
89.75504227759347
  0
LINE
  5
170
100
AcDbEntity
  8
Living Hinge
  6
ByLayer
 62
  256
370
   -1
100
AcDbLine
 10
-72.6326147187502
 20
89.75504227759347
 11
-86
 21
89.75504227759347
  0
LINE
  5
171
100
AcDbEntity
  8
Living Hinge
  6
ByLayer
 62
  256
370
   -1
100
AcDbLine
 10
-47.35201034375009
 20
94.17807411159362
 11
-60.7193956249999
 21
94.17807411159362
  0
LINE
  5
172
100
AcDbEntity
  8
Living Hinge
  6
ByLayer
 62
  256
370
   -1
100
AcDbLine
 10
-64.20718999999988
 20
94.17807411159362
 11
-77.57457528125023
 21
94.17807411159362
  0
LINE
  5
173
100
AcDbEntity
  8
Living Hinge
  6
ByLayer
 62
  256
370
   -1
100
AcDbLine
 10
-30.4972243437499
 20
94.17807411159362
 11
-43.86460962500026
 21
94.17807411159362
  0
LINE
  5
174
100
AcDbEntity
  8
Living Hinge
  6
ByLayer
 62
  256
370
   -1
100
AcDbLine
 10
-81.06000771875004
 20
94.17807411159362
 11
-86
 21
94.17807411159362
  0
LINE
  5
175
100
AcDbEntity
  8
Living Hinge
  6
ByLayer
 62
  256
370
   -1
100
AcDbLine
 10
-22.07140596875
 20
92.7043959653123
 11
-35.43682296874973
 21
92.7043959653123
  0
LINE
  5
176
100
AcDbEntity
  8
Living Hinge
  6
ByLayer
 62
  256
370
   -1
100
AcDbLine
 10
-38.92461734374971
 20
92.7043959653123
 11
-52.29200262500009
 21
92.7043959653123
  0
LINE
  5
177
100
AcDbEntity
  8
Living Hinge
  6
ByLayer
 62
  256
370
   -1
100
AcDbLine
 10
-55.77979700000004
 20
92.7043959653123
 11
-69.14718228124984
 21
92.7043959653123
  0
LINE
  5
178
100
AcDbEntity
  8
Living Hinge
  6
ByLayer
 62
  256
370
   -1
100
AcDbLine
 10
-72.6326147187502
 20
92.7043959653123
 11
-86
 21
92.7043959653123
  0
LINE
  5
179
100
AcDbEntity
  8
Living Hinge
  6
ByLayer
 62
  256
370
   -1
100
AcDbLine
 10
-47.35201034375009
 20
97.12582988318741
 11
-60.7193956249999
 21
97.12582988318741
  0
LINE
  5
17A
100
AcDbEntity
  8
Living Hinge
  6
ByLayer
 62
  256
370
   -1
100
AcDbLine
 10
-64.20718999999988
 20
97.12582988318741
 11
-77.57457528125023
 21
97.12582988318741
  0
LINE
  5
17B
100
AcDbEntity
  8
Living Hinge
  6
ByLayer
 62
  256
370
   -1
100
AcDbLine
 10
-30.4972243437499
 20
97.12582988318741
 11
-43.86460962500026
 21
97.12582988318741
  0
LINE
  5
17C
100
AcDbEntity
  8
Living Hinge
  6
ByLayer
 62
  256
370
   -1
100
AcDbLine
 10
-81.06000771875004
 20
97.12582988318741
 11
-86
 21
97.12582988318741
  0
LINE
  5
17D
100
AcDbEntity
  8
Living Hinge
  6
ByLayer
 62
  256
370
   -1
100
AcDbLine
 10
-22.07140596875
 20
95.65175225787482
 11
-35.43682296874973
 21
95.65175225787482
  0
LINE
  5
17E
100
AcDbEntity
  8
Living Hinge
  6
ByLayer
 62
  256
370
   -1
100
AcDbLine
 10
-38.92461734374971
 20
95.65175225787482
 11
-52.29200262500009
 21
95.65175225787482
  0
LINE
  5
17F
100
AcDbEntity
  8
Living Hinge
  6
ByLayer
 62
  256
370
   -1
100
AcDbLine
 10
-55.77979700000004
 20
95.65175225787482
 11
-69.14718228124984
 21
95.65175225787482
  0
LINE
  5
180
100
AcDbEntity
  8
Living Hinge
  6
ByLayer
 62
  256
370
   -1
100
AcDbLine
 10
-72.6326147187502
 20
95.65175225787482
 11
-86
 21
95.65175225787482
  0
LINE
  5
181
100
AcDbEntity
  8
Living Hinge
  6
ByLayer
 62
  256
370
   -1
100
AcDbLine
 10
-47.35201034375009
 20
100.0755830499376
 11
-60.7193956249999
 21
100.0755830499376
  0
LINE
  5
182
100
AcDbEntity
  8
Living Hinge
  6
ByLayer
 62
  256
370
   -1
100
AcDbLine
 10
-64.20718999999988
 20
100.0755830499376
 11
-77.57457528125023
 21
100.0755830499376
  0
LINE
  5
183
100
AcDbEntity
  8
Living Hinge
  6
ByLayer
 62
  256
370
   -1
100
AcDbLine
 10
-30.4972243437499
 20
100.0755830499376
 11
-43.86460962500026
 21
100.0755830499376
  0
LINE
  5
184
100
AcDbEntity
  8
Living Hinge
  6
ByLayer
 62
  256
370
   -1
100
AcDbLine
 10
-81.06000771875004
 20
100.0755830499376
 11
-86
 21
100.0755830499376
  0
LINE
  5
185
100
AcDbEntity
  8
Living Hinge
  6
ByLayer
 62
  256
370
   -1
100
AcDbLine
 10
-22.07140596875
 20
98.6019049036563
 11
-35.43682296874973
 21
98.6019049036563
  0
LINE
  5
186
100
AcDbEntity
  8
Living Hinge
  6
ByLayer
 62
  256
370
   -1
100
AcDbLine
 10
-38.92461734374971
 20
98.6019049036563
 11
-52.29200262500009
 21
98.6019049036563
  0
LINE
  5
187
100
AcDbEntity
  8
Living Hinge
  6
ByLayer
 62
  256
370
   -1
100
AcDbLine
 10
-55.77979700000004
 20
98.6019049036563
 11
-69.14718228124984
 21
98.6019049036563
  0
LINE
  5
188
100
AcDbEntity
  8
Living Hinge
  6
ByLayer
 62
  256
370
   -1
100
AcDbLine
 10
-72.6326147187502
 20
98.6019049036563
 11
-86
 21
98.6019049036563
  0
LINE
  5
189
100
AcDbEntity
  8
Living Hinge
  6
ByLayer
 62
  256
370
   -1
100
AcDbLine
 10
-47.35201034375009
 20
103.0233388215308
 11
-60.7193956249999
 21
103.0233388215308
  0
LINE
  5
18A
100
AcDbEntity
  8
Living Hinge
  6
ByLayer
 62
  256
370
   -1
100
AcDbLine
 10
-64.20718999999988
 20
103.0233388215308
 11
-77.57457528125023
 21
103.0233388215308
  0
LINE
  5
18B
100
AcDbEntity
  8
Living Hinge
  6
ByLayer
 62
  256
370
   -1
100
AcDbLine
 10
-30.4972243437499
 20
103.0233388215308
 11
-43.86460962500026
 21
103.0233388215308
  0
LINE
  5
18C
100
AcDbEntity
  8
Living Hinge
  6
ByLayer
 62
  256
370
   -1
100
AcDbLine
 10
-81.06000771875004
 20
103.0233388215308
 11
-86
 21
103.0233388215308
  0
LINE
  5
18D
100
AcDbEntity
  8
Living Hinge
  6
ByLayer
 62
  256
370
   -1
100
AcDbLine
 10
-22.07140596875
 20
101.5488617171874
 11
-35.43682296874973
 21
101.5488617171874
  0
LINE
  5
18E
100
AcDbEntity
  8
Living Hinge
  6
ByLayer
 62
  256
370
   -1
100
AcDbLine
 10
-38.92461734374971
 20
101.5488617171874
 11
-52.29200262500009
 21
101.5488617171874
  0
LINE
  5
18F
100
AcDbEntity
  8
Living Hinge
  6
ByLayer
 62
  256
370
   -1
100
AcDbLine
 10
-55.77979700000004
 20
101.5488617171874
 11
-69.14718228124984
 21
101.5488617171874
  0
LINE
  5
190
100
AcDbEntity
  8
Living Hinge
  6
ByLayer
 62
  256
370
   -1
100
AcDbLine
 10
-72.6326147187502
 20
101.5488617171874
 11
-86
 21
101.5488617171874
  0
LINE
  5
191
100
AcDbEntity
  8
Living Hinge
  6
ByLayer
 62
  256
370
   -1
100
AcDbLine
 10
-47.35201034375007
 20
105.9726925092496
 11
-60.7193956249999
 21
105.9726925092496
  0
LINE
  5
192
100
AcDbEntity
  8
Living Hinge
  6
ByLayer
 62
  256
370
   -1
100
AcDbLine
 10
-64.20718999999988
 20
105.9726925092496
 11
-77.57457528125023
 21
105.9726925092496
  0
LINE
  5
193
100
AcDbEntity
  8
Living Hinge
  6
ByLayer
 62
  256
370
   -1
100
AcDbLine
 10
-30.4972243437499
 20
105.9726925092496
 11
-43.86460962500026
 21
105.9726925092496
  0
LINE
  5
194
100
AcDbEntity
  8
Living Hinge
  6
ByLayer
 62
  256
370
   -1
100
AcDbLine
 10
-81.06000771875004
 20
105.9726925092496
 11
-86
 21
105.9726925092496
  0
LINE
  5
195
100
AcDbEntity
  8
Living Hinge
  6
ByLayer
 62
  256
370
   -1
100
AcDbLine
 10
-22.07140596875
 20
104.4990143629684
 11
-35.43682296874973
 21
104.4990143629684
  0
LINE
  5
196
100
AcDbEntity
  8
Living Hinge
  6
ByLayer
 62
  256
370
   -1
100
AcDbLine
 10
-38.92461734374968
 20
104.4990143629684
 11
-52.29200262500009
 21
104.4990143629684
  0
LINE
  5
197
100
AcDbEntity
  8
Living Hinge
  6
ByLayer
 62
  256
370
   -1
100
AcDbLine
 10
-55.77979700000004
 20
104.4990143629684
 11
-69.14718228124984
 21
104.4990143629684
  0
LINE
  5
198
100
AcDbEntity
  8
Living Hinge
  6
ByLayer
 62
  256
370
   -1
100
AcDbLine
 10
-72.6326147187502
 20
104.4990143629684
 11
-86
 21
104.4990143629684
  0
LINE
  5
199
100
AcDbEntity
  8
Living Hinge
  6
ByLayer
 62
  256
370
   -1
100
AcDbLine
 10
-13.4370103437501
 20
47
 11
-26.8043956249999
 21
47
  0
LINE
  5
19A
100
AcDbEntity
  8
Living Hinge
  6
ByLayer
 62
  256
370
   -1
100
AcDbLine
 10
3.4177756562501
 20
47
 11
-9.949609625000249
 21
47
  0
LINE
  5
19B
100
AcDbEntity
  8
Living Hinge
  6
ByLayer
 62
  256
370
   -1
100
AcDbLine
 10
-13.4370103437501
 20
49.94815525062469
 11
-26.8043956249999
 21
49.94815525062469
  0
LINE
  5
19C
100
AcDbEntity
  8
Living Hinge
  6
ByLayer
 62
  256
370
   -1
100
AcDbLine
 10
3.4177756562501
 20
49.94815525062469
 11
-9.949609625000249
 21
49.94815525062469
  0
LINE
  5
19D
100
AcDbEntity
  8
Living Hinge
  6
ByLayer
 62
  256
370
   -1
100
AcDbLine
 10
11.84359403124999
 20
48.47367814628129
 11
-1.521822968749731
 21
48.47367814628129
  0
LINE
  5
19E
100
AcDbEntity
  8
Living Hinge
  6
ByLayer
 62
  256
370
   -1
100
AcDbLine
 10
-5.00961734374971
 20
48.47367814628129
 11
-18.37700262500009
 21
48.47367814628129
  0
LINE
  5
19F
100
AcDbEntity
  8
Living Hinge
  6
ByLayer
 62
  256
370
   -1
100
AcDbLine
 10
-13.4370103437501
 20
52.89750893834349
 11
-26.8043956249999
 21
52.89750893834349
  0
LINE
  5
1A0
100
AcDbEntity
  8
Living Hinge
  6
ByLayer
 62
  256
370
   -1
100
AcDbLine
 10
3.4177756562501
 20
52.89750893834349
 11
-9.949609625000249
 21
52.89750893834349
  0
LINE
  5
1A1
100
AcDbEntity
  8
Living Hinge
  6
ByLayer
 62
  256
370
   -1
100
AcDbLine
 10
11.84359403124999
 20
51.4238307920622
 11
-1.521822968749731
 21
51.4238307920622
  0
LINE
  5
1A2
100
AcDbEntity
  8
Living Hinge
  6
ByLayer
 62
  256
370
   -1
100
AcDbLine
 10
-5.00961734374971
 20
51.4238307920622
 11
-18.37700262500009
 21
51.4238307920622
  0
LINE
  5
1A3
100
AcDbEntity
  8
Living Hinge
  6
ByLayer
 62
  256
370
   -1
100
AcDbLine
 10
-13.4370103437501
 20
55.8448652309059
 11
-26.8043956249999
 21
55.8448652309059
  0
LINE
  5
1A4
100
AcDbEntity
  8
Living Hinge
  6
ByLayer
 62
  256
370
   -1
100
AcDbLine
 10
3.4177756562501
 20
55.8448652309059
 11
-9.949609625000249
 21
55.8448652309059
  0
LINE
  5
1A5
100
AcDbEntity
  8
Living Hinge
  6
ByLayer
 62
  256
370
   -1
100
AcDbLine
 10
11.84359403124999
 20
54.37118708462469
 11
-1.521822968749731
 21
54.37118708462469
  0
LINE
  5
1A6
100
AcDbEntity
  8
Living Hinge
  6
ByLayer
 62
  256
370
   -1
100
AcDbLine
 10
-5.00961734374971
 20
54.37118708462469
 11
-18.37700262500009
 21
54.37118708462469
  0
LINE
  5
1A7
100
AcDbEntity
  8
Living Hinge
  6
ByLayer
 62
  256
370
   -1
100
AcDbLine
 10
-13.4370103437501
 20
58.79461839765611
 11
-26.8043956249999
 21
58.79461839765611
  0
LINE
  5
1A8
100
AcDbEntity
  8
Living Hinge
  6
ByLayer
 62
  256
370
   -1
100
AcDbLine
 10
3.4177756562501
 20
58.79461839765611
 11
-9.949609625000249
 21
58.79461839765611
  0
LINE
  5
1A9
100
AcDbEntity
  8
Living Hinge
  6
ByLayer
 62
  256
370
   -1
100
AcDbLine
 10
11.84359403124999
 20
57.32094025137491
 11
-1.521822968749731
 21
57.32094025137491
  0
LINE
  5
1AA
100
AcDbEntity
  8
Living Hinge
  6
ByLayer
 62
  256
370
   -1
100
AcDbLine
 10
-5.00961734374971
 20
57.32094025137491
 11
-18.37700262500009
 21
57.32094025137491
  0
LINE
  5
1AB
100
AcDbEntity
  8
Living Hinge
  6
ByLayer
 62
  256
370
   -1
100
AcDbLine
 10
-13.4370103437501
 20
61.74197469021863
 11
-26.8043956249999
 21
61.74197469021863
  0
LINE
  5
1AC
100
AcDbEntity
  8
Living Hinge
  6
ByLayer
 62
  256
370
   -1
100
AcDbLine
 10
3.4177756562501
 20
61.74197469021863
 11
-9.949609625000249
 21
61.74197469021863
  0
LINE
  5
1AD
100
AcDbEntity
  8
Living Hinge
  6
ByLayer
 62
  256
370
   -1
100
AcDbLine
 10
11.84359403124999
 20
60.26829654393731
 11
-1.521822968749731
 21
60.26829654393731
  0
LINE
  5
1AE
100
AcDbEntity
  8
Living Hinge
  6
ByLayer
 62
  256
370
   -1
100
AcDbLine
 10
-5.00961734374971
 20
60.26829654393731
 11
-18.37700262500009
 21
60.26829654393742
  0
LINE
  5
1AF
100
AcDbEntity
  8
Living Hinge
  6
ByLayer
 62
  256
370
   -1
100
AcDbLine
 10
-13.4370103437501
 20
64.69212733599949
 11
-26.8043956249999
 21
64.69212733599949
  0
LINE
  5
1B0
100
AcDbEntity
  8
Living Hinge
  6
ByLayer
 62
  256
370
   -1
100
AcDbLine
 10
3.4177756562501
 20
64.69212733599949
 11
-9.949609625000249
 21
64.69212733599949
  0
LINE
  5
1B1
100
AcDbEntity
  8
Living Hinge
  6
ByLayer
 62
  256
370
   -1
100
AcDbLine
 10
11.84359403124999
 20
63.21804971068752
 11
-1.521822968749731
 21
63.21804971068752
  0
LINE
  5
1B2
100
AcDbEntity
  8
Living Hinge
  6
ByLayer
 62
  256
370
   -1
100
AcDbLine
 10
-5.00961734374971
 20
63.21804971068752
 11
-18.37700262500009
 21
63.21804971068752
  0
LINE
  5
1B3
100
AcDbEntity
  8
Living Hinge
  6
ByLayer
 62
  256
370
   -1
100
AcDbLine
 10
-13.4370103437501
 20
67.64148102371843
 11
-26.8043956249999
 21
67.64148102371843
  0
LINE
  5
1B4
100
AcDbEntity
  8
Living Hinge
  6
ByLayer
 62
  256
370
   -1
100
AcDbLine
 10
3.4177756562501
 20
67.64148102371831
 11
-9.949609625000249
 21
67.64148102371843
  0
LINE
  5
1B5
100
AcDbEntity
  8
Living Hinge
  6
ByLayer
 62
  256
370
   -1
100
AcDbLine
 10
11.84359403124999
 20
66.16580548228131
 11
-1.521822968749731
 21
66.16580548228131
  0
LINE
  5
1B6
100
AcDbEntity
  8
Living Hinge
  6
ByLayer
 62
  256
370
   -1
100
AcDbLine
 10
-5.00961734374971
 20
66.16580548228131
 11
-18.37700262500009
 21
66.16580548228131
  0
LINE
  5
1B7
100
AcDbEntity
  8
Living Hinge
  6
ByLayer
 62
  256
370
   -1
100
AcDbLine
 10
-13.4370103437501
 20
70.58923679531222
 11
-26.8043956249999
 21
70.58923679531222
  0
LINE
  5
1B8
100
AcDbEntity
  8
Living Hinge
  6
ByLayer
 62
  256
370
   -1
100
AcDbLine
 10
3.4177756562501
 20
70.58923679531222
 11
-9.949609625000249
 21
70.58923679531222
  0
LINE
  5
1B9
100
AcDbEntity
  8
Living Hinge
  6
ByLayer
 62
  256
370
   -1
100
AcDbLine
 10
11.84359403124999
 20
69.11515916999957
 11
-1.521822968749731
 21
69.11515916999957
  0
LINE
  5
1BA
100
AcDbEntity
  8
Living Hinge
  6
ByLayer
 62
  256
370
   -1
100
AcDbLine
 10
-5.00961734374971
 20
69.11515916999957
 11
-18.37700262500009
 21
69.11515916999957
  0
LINE
  5
1BB
100
AcDbEntity
  8
Living Hinge
  6
ByLayer
 62
  256
370
   -1
100
AcDbLine
 10
-13.4370103437501
 20
73.53659308787462
 11
-26.8043956249999
 21
73.53659308787462
  0
LINE
  5
1BC
100
AcDbEntity
  8
Living Hinge
  6
ByLayer
 62
  256
370
   -1
100
AcDbLine
 10
3.4177756562501
 20
73.53659308787462
 11
-9.949609625000249
 21
73.53659308787462
  0
LINE
  5
1BD
100
AcDbEntity
  8
Living Hinge
  6
ByLayer
 62
  256
370
   -1
100
AcDbLine
 10
11.84359403124999
 20
72.06291494159342
 11
-1.521822968749731
 21
72.06291494159342
  0
LINE
  5
1BE
100
AcDbEntity
  8
Living Hinge
  6
ByLayer
 62
  256
370
   -1
100
AcDbLine
 10
-5.00961734374971
 20
72.06291494159342
 11
-18.37700262500009
 21
72.06291494159342
  0
LINE
  5
1BF
100
AcDbEntity
  8
Living Hinge
  6
ByLayer
 62
  256
370
   -1
100
AcDbLine
 10
-13.4370103437501
 20
76.48674573365622
 11
-26.8043956249999
 21
76.48674573365622
  0
LINE
  5
1C0
100
AcDbEntity
  8
Living Hinge
  6
ByLayer
 62
  256
370
   -1
100
AcDbLine
 10
3.4177756562501
 20
76.48674573365622
 11
-9.949609625000249
 21
76.48674573365622
  0
LINE
  5
1C1
100
AcDbEntity
  8
Living Hinge
  6
ByLayer
 62
  256
370
   -1
100
AcDbLine
 10
11.84359403124999
 20
75.01266810834358
 11
-1.521822968749731
 21
75.01266810834358
  0
LINE
  5
1C2
100
AcDbEntity
  8
Living Hinge
  6
ByLayer
 62
  256
370
   -1
100
AcDbLine
 10
-5.00961734374971
 20
75.01266810834358
 11
-18.37700262500009
 21
75.01266810834358
  0
LINE
  5
1C3
100
AcDbEntity
  8
Living Hinge
  6
ByLayer
 62
  256
370
   -1
100
AcDbLine
 10
-13.4370103437501
 20
79.43410202621862
 11
-26.8043956249999
 21
79.43410202621862
  0
LINE
  5
1C4
100
AcDbEntity
  8
Living Hinge
  6
ByLayer
 62
  256
370
   -1
100
AcDbLine
 10
3.4177756562501
 20
79.43410202621862
 11
-9.949609625000249
 21
79.43410202621862
  0
LINE
  5
1C5
100
AcDbEntity
  8
Living Hinge
  6
ByLayer
 62
  256
370
   -1
100
AcDbLine
 10
11.84359403124999
 20
77.96042387993742
 11
-1.521822968749731
 21
77.96042387993742
  0
LINE
  5
1C6
100
AcDbEntity
  8
Living Hinge
  6
ByLayer
 62
  256
370
   -1
100
AcDbLine
 10
-5.00961734374971
 20
77.96042387993742
 11
-18.37700262500009
 21
77.96042387993742
  0
LINE
  5
1C7
100
AcDbEntity
  8
Living Hinge
  6
ByLayer
 62
  256
370
   -1
100
AcDbLine
 10
-13.4370103437501
 20
82.38345571393751
 11
-26.8043956249999
 21
82.38345571393751
  0
LINE
  5
1C8
100
AcDbEntity
  8
Living Hinge
  6
ByLayer
 62
  256
370
   -1
100
AcDbLine
 10
3.4177756562501
 20
82.38345571393751
 11
-9.949609625000249
 21
82.38345571393751
  0
LINE
  5
1C9
100
AcDbEntity
  8
Living Hinge
  6
ByLayer
 62
  256
370
   -1
100
AcDbLine
 10
11.84359403124999
 20
80.90977756765619
 11
-1.521822968749731
 21
80.90977756765619
  0
LINE
  5
1CA
100
AcDbEntity
  8
Living Hinge
  6
ByLayer
 62
  256
370
   -1
100
AcDbLine
 10
-5.00961734374971
 20
80.90977756765619
 11
-18.37700262500009
 21
80.90977756765619
  0
LINE
  5
1CB
100
AcDbEntity
  8
Living Hinge
  6
ByLayer
 62
  256
370
   -1
100
AcDbLine
 10
-13.4370103437501
 20
85.3312114855313
 11
-26.8043956249999
 21
85.3312114855313
  0
LINE
  5
1CC
100
AcDbEntity
  8
Living Hinge
  6
ByLayer
 62
  256
370
   -1
100
AcDbLine
 10
3.4177756562501
 20
85.3312114855313
 11
-9.949609625000249
 21
85.3312114855313
  0
LINE
  5
1CD
100
AcDbEntity
  8
Living Hinge
  6
ByLayer
 62
  256
370
   -1
100
AcDbLine
 10
11.84359403124999
 20
83.85753333924998
 11
-1.521822968749731
 21
83.85753333924998
  0
LINE
  5
1CE
100
AcDbEntity
  8
Living Hinge
  6
ByLayer
 62
  256
370
   -1
100
AcDbLine
 10
-5.00961734374971
 20
83.85753333924998
 11
-18.37700262500009
 21
83.85753333924998
  0
LINE
  5
1CF
100
AcDbEntity
  8
Living Hinge
  6
ByLayer
 62
  256
370
   -1
100
AcDbLine
 10
-13.4370103437501
 20
88.28096465228089
 11
-26.8043956249999
 21
88.28096465228089
  0
LINE
  5
1D0
100
AcDbEntity
  8
Living Hinge
  6
ByLayer
 62
  256
370
   -1
100
AcDbLine
 10
3.4177756562501
 20
88.28096465228089
 11
-9.949609625000249
 21
88.28096465228089
  0
LINE
  5
1D1
100
AcDbEntity
  8
Living Hinge
  6
ByLayer
 62
  256
370
   -1
100
AcDbLine
 10
11.84359403124999
 20
86.80728650599963
 11
-1.521822968749731
 21
86.80728650599963
  0
LINE
  5
1D2
100
AcDbEntity
  8
Living Hinge
  6
ByLayer
 62
  256
370
   -1
100
AcDbLine
 10
-5.00961734374971
 20
86.80728650599963
 11
-18.37700262500009
 21
86.80728650599963
  0
LINE
  5
1D3
100
AcDbEntity
  8
Living Hinge
  6
ByLayer
 62
  256
370
   -1
100
AcDbLine
 10
-13.4370103437501
 20
91.22872042387468
 11
-26.8043956249999
 21
91.22872042387468
  0
LINE
  5
1D4
100
AcDbEntity
  8
Living Hinge
  6
ByLayer
 62
  256
370
   -1
100
AcDbLine
 10
3.4177756562501
 20
91.22872042387468
 11
-9.949609625000249
 21
91.22872042387468
  0
LINE
  5
1D5
100
AcDbEntity
  8
Living Hinge
  6
ByLayer
 62
  256
370
   -1
100
AcDbLine
 10
11.84359403124999
 20
89.75504227759347
 11
-1.521822968749731
 21
89.75504227759347
  0
LINE
  5
1D6
100
AcDbEntity
  8
Living Hinge
  6
ByLayer
 62
  256
370
   -1
100
AcDbLine
 10
-5.00961734374971
 20
89.75504227759347
 11
-18.37700262500009
 21
89.75504227759347
  0
LINE
  5
1D7
100
AcDbEntity
  8
Living Hinge
  6
ByLayer
 62
  256
370
   -1
100
AcDbLine
 10
-13.4370103437501
 20
94.17807411159362
 11
-26.8043956249999
 21
94.17807411159362
  0
LINE
  5
1D8
100
AcDbEntity
  8
Living Hinge
  6
ByLayer
 62
  256
370
   -1
100
AcDbLine
 10
3.4177756562501
 20
94.17807411159362
 11
-9.949609625000249
 21
94.17807411159362
  0
LINE
  5
1D9
100
AcDbEntity
  8
Living Hinge
  6
ByLayer
 62
  256
370
   -1
100
AcDbLine
 10
11.84359403124999
 20
92.7043959653123
 11
-1.521822968749731
 21
92.7043959653123
  0
LINE
  5
1DA
100
AcDbEntity
  8
Living Hinge
  6
ByLayer
 62
  256
370
   -1
100
AcDbLine
 10
-5.00961734374971
 20
92.7043959653123
 11
-18.37700262500009
 21
92.7043959653123
  0
LINE
  5
1DB
100
AcDbEntity
  8
Living Hinge
  6
ByLayer
 62
  256
370
   -1
100
AcDbLine
 10
-13.4370103437501
 20
97.12582988318741
 11
-26.8043956249999
 21
97.12582988318741
  0
LINE
  5
1DC
100
AcDbEntity
  8
Living Hinge
  6
ByLayer
 62
  256
370
   -1
100
AcDbLine
 10
3.4177756562501
 20
97.12582988318741
 11
-9.949609625000249
 21
97.12582988318741
  0
LINE
  5
1DD
100
AcDbEntity
  8
Living Hinge
  6
ByLayer
 62
  256
370
   -1
100
AcDbLine
 10
11.84359403124999
 20
95.65175225787482
 11
-1.521822968749731
 21
95.65175225787482
  0
LINE
  5
1DE
100
AcDbEntity
  8
Living Hinge
  6
ByLayer
 62
  256
370
   -1
100
AcDbLine
 10
-5.00961734374971
 20
95.65175225787482
 11
-18.37700262500009
 21
95.65175225787482
  0
LINE
  5
1DF
100
AcDbEntity
  8
Living Hinge
  6
ByLayer
 62
  256
370
   -1
100
AcDbLine
 10
-13.4370103437501
 20
100.0755830499376
 11
-26.8043956249999
 21
100.0755830499376
  0
LINE
  5
1E0
100
AcDbEntity
  8
Living Hinge
  6
ByLayer
 62
  256
370
   -1
100
AcDbLine
 10
3.4177756562501
 20
100.0755830499376
 11
-9.949609625000249
 21
100.0755830499376
  0
LINE
  5
1E1
100
AcDbEntity
  8
Living Hinge
  6
ByLayer
 62
  256
370
   -1
100
AcDbLine
 10
11.84359403124999
 20
98.6019049036563
 11
-1.521822968749731
 21
98.6019049036563
  0
LINE
  5
1E2
100
AcDbEntity
  8
Living Hinge
  6
ByLayer
 62
  256
370
   -1
100
AcDbLine
 10
-5.00961734374971
 20
98.6019049036563
 11
-18.37700262500009
 21
98.6019049036563
  0
LINE
  5
1E3
100
AcDbEntity
  8
Living Hinge
  6
ByLayer
 62
  256
370
   -1
100
AcDbLine
 10
-13.4370103437501
 20
103.0233388215308
 11
-26.8043956249999
 21
103.0233388215308
  0
LINE
  5
1E4
100
AcDbEntity
  8
Living Hinge
  6
ByLayer
 62
  256
370
   -1
100
AcDbLine
 10
3.4177756562501
 20
103.0233388215308
 11
-9.949609625000249
 21
103.0233388215308
  0
LINE
  5
1E5
100
AcDbEntity
  8
Living Hinge
  6
ByLayer
 62
  256
370
   -1
100
AcDbLine
 10
11.84359403124999
 20
101.5488617171874
 11
-1.521822968749731
 21
101.5488617171874
  0
LINE
  5
1E6
100
AcDbEntity
  8
Living Hinge
  6
ByLayer
 62
  256
370
   -1
100
AcDbLine
 10
-5.00961734374971
 20
101.5488617171874
 11
-18.37700262500009
 21
101.5488617171874
  0
LINE
  5
1E7
100
AcDbEntity
  8
Living Hinge
  6
ByLayer
 62
  256
370
   -1
100
AcDbLine
 10
-13.43701034375007
 20
105.9726925092496
 11
-26.8043956249999
 21
105.9726925092496
  0
LINE
  5
1E8
100
AcDbEntity
  8
Living Hinge
  6
ByLayer
 62
  256
370
   -1
100
AcDbLine
 10
3.4177756562501
 20
105.9726925092496
 11
-9.949609625000249
 21
105.9726925092496
  0
LINE
  5
1E9
100
AcDbEntity
  8
Living Hinge
  6
ByLayer
 62
  256
370
   -1
100
AcDbLine
 10
11.84359403124999
 20
104.4990143629684
 11
-1.521822968749731
 21
104.4990143629684
  0
LINE
  5
1EA
100
AcDbEntity
  8
Living Hinge
  6
ByLayer
 62
  256
370
   -1
100
AcDbLine
 10
-5.009617343749682
 20
104.4990143629684
 11
-18.37700262500009
 21
104.4990143629684
  0
LINE
  5
1EB
100
AcDbEntity
  8
Living Hinge
  6
ByLayer
 62
  256
370
   -1
100
AcDbLine
 10
20.44879117569872
 20
104.5263218537189
 11
15.45178665625052
 21
104.5263218537189
  0
LINE
  5
1EC
100
AcDbEntity
  8
Living Hinge
  6
ByLayer
 62
  256
370
   -1
100
AcDbLine
 10
20.44879117569872
 20
106
 11
7.024000000000001
 21
106
  0
LINE
  5
1ED
100
AcDbEntity
  8
Living Hinge
  6
ByLayer
 62
  256
370
   -1
100
AcDbLine
 10
20.44879117569872
 20
103.0506463122813
 11
7.024000000000001
 21
103.0506463122813
  0
LINE
  5
1EE
100
AcDbEntity
  8
Living Hinge
  6
ByLayer
 62
  256
370
   -1
100
AcDbLine
 10
20.44879117569872
 20
101.5761692079379
 11
15.45178665625052
 21
101.5761692079379
  0
LINE
  5
1EF
100
AcDbEntity
  8
Living Hinge
  6
ByLayer
 62
  256
370
   -1
100
AcDbLine
 10
20.44879117569872
 20
100.102890540688
 11
7.024000000000001
 21
100.102890540688
  0
LINE
  5
1F0
100
AcDbEntity
  8
Living Hinge
  6
ByLayer
 62
  256
370
   -1
100
AcDbLine
 10
20.44879117569872
 20
98.62921239440669
 11
15.45178665625052
 21
98.62921239440669
  0
LINE
  5
1F1
100
AcDbEntity
  8
Living Hinge
  6
ByLayer
 62
  256
370
   -1
100
AcDbLine
 10
20.44879117569872
 20
97.15313737393791
 11
7.024000000000001
 21
97.15313737393791
  0
LINE
  5
1F2
100
AcDbEntity
  8
Living Hinge
  6
ByLayer
 62
  256
370
   -1
100
AcDbLine
 10
20.44879117569872
 20
95.67905974862521
 11
15.45178665625052
 21
95.67905974862521
  0
LINE
  5
1F3
100
AcDbEntity
  8
Living Hinge
  6
ByLayer
 62
  256
370
   -1
100
AcDbLine
 10
20.44879117569872
 20
94.205381602344
 11
7.024000000000001
 21
94.205381602344
  0
LINE
  5
1F4
100
AcDbEntity
  8
Living Hinge
  6
ByLayer
 62
  256
370
   -1
100
AcDbLine
 10
20.44879117569872
 20
92.73170345606269
 11
15.45178665625052
 21
92.73170345606269
  0
LINE
  5
1F5
100
AcDbEntity
  8
Living Hinge
  6
ByLayer
 62
  256
370
   -1
100
AcDbLine
 10
20.44879117569872
 20
91.25602791462518
 11
7.024000000000001
 21
91.25602791462518
  0
LINE
  5
1F6
100
AcDbEntity
  8
Living Hinge
  6
ByLayer
 62
  256
370
   -1
100
AcDbLine
 10
20.44879117569872
 20
89.78234976834392
 11
15.45178665625052
 21
89.78234976834392
  0
LINE
  5
1F7
100
AcDbEntity
  8
Living Hinge
  6
ByLayer
 62
  256
370
   -1
100
AcDbLine
 10
20.44879117569872
 20
88.30827214303127
 11
7.024000000000001
 21
88.30827214303127
  0
LINE
  5
1F8
100
AcDbEntity
  8
Living Hinge
  6
ByLayer
 62
  256
370
   -1
100
AcDbLine
 10
20.44879117569872
 20
86.83459399675007
 11
15.45178665625052
 21
86.83459399675007
  0
LINE
  5
1F9
100
AcDbEntity
  8
Living Hinge
  6
ByLayer
 62
  256
370
   -1
100
AcDbLine
 10
20.44879117569872
 20
85.35851897628169
 11
7.024000000000001
 21
85.35851897628169
  0
LINE
  5
1FA
100
AcDbEntity
  8
Living Hinge
  6
ByLayer
 62
  256
370
   -1
100
AcDbLine
 10
20.44879117569872
 20
83.88484083000048
 11
15.45178665625052
 21
83.88484083000048
  0
LINE
  5
1FB
100
AcDbEntity
  8
Living Hinge
  6
ByLayer
 62
  256
370
   -1
100
AcDbLine
 10
20.44879117569872
 20
82.41076320468801
 11
7.024000000000001
 21
82.41076320468801
  0
LINE
  5
1FC
100
AcDbEntity
  8
Living Hinge
  6
ByLayer
 62
  256
370
   -1
100
AcDbLine
 10
20.44879117569872
 20
80.93708505840658
 11
15.45178665625052
 21
80.93708505840658
  0
LINE
  5
1FD
100
AcDbEntity
  8
Living Hinge
  6
ByLayer
 62
  256
370
   -1
100
AcDbLine
 10
20.44879117569872
 20
79.46140951696913
 11
7.024000000000001
 21
79.46140951696913
  0
LINE
  5
1FE
100
AcDbEntity
  8
Living Hinge
  6
ByLayer
 62
  256
370
   -1
100
AcDbLine
 10
20.44879117569872
 20
77.98773137068792
 11
15.45178665625052
 21
77.98773137068792
  0
LINE
  5
1FF
100
AcDbEntity
  8
Living Hinge
  6
ByLayer
 62
  256
370
   -1
100
AcDbLine
 10
20.44879117569872
 20
76.51405322440661
 11
7.024000000000001
 21
76.51405322440661
  0
LINE
  5
200
100
AcDbEntity
  8
Living Hinge
  6
ByLayer
 62
  256
370
   -1
100
AcDbLine
 10
20.44879117569872
 20
75.03997559909402
 11
15.45178665625052
 21
75.03997559909402
  0
LINE
  5
201
100
AcDbEntity
  8
Living Hinge
  6
ByLayer
 62
  256
370
   -1
100
AcDbLine
 10
20.44879117569872
 20
73.56390057862512
 11
7.024000000000001
 21
73.56390057862512
  0
LINE
  5
202
100
AcDbEntity
  8
Living Hinge
  6
ByLayer
 62
  256
370
   -1
100
AcDbLine
 10
20.44879117569872
 20
72.09022243234392
 11
15.45178665625052
 21
72.09022243234392
  0
LINE
  5
203
100
AcDbEntity
  8
Living Hinge
  6
ByLayer
 62
  256
370
   -1
100
AcDbLine
 10
20.44879117569872
 20
70.61654428606261
 11
7.024000000000001
 21
70.61654428606272
  0
LINE
  5
204
100
AcDbEntity
  8
Living Hinge
  6
ByLayer
 62
  256
370
   -1
100
AcDbLine
 10
20.44879117569872
 20
69.14246666075002
 11
15.45178665625052
 21
69.14246666075002
  0
LINE
  5
205
100
AcDbEntity
  8
Living Hinge
  6
ByLayer
 62
  256
370
   -1
100
AcDbLine
 10
20.44879117569872
 20
67.66878851446882
 11
7.024000000000001
 21
67.66878851446882
  0
LINE
  5
206
100
AcDbEntity
  8
Living Hinge
  6
ByLayer
 62
  256
370
   -1
100
AcDbLine
 10
20.44879117569872
 20
66.19311297303182
 11
15.45178665625052
 21
66.19311297303182
  0
LINE
  5
207
100
AcDbEntity
  8
Living Hinge
  6
ByLayer
 62
  256
370
   -1
100
AcDbLine
 10
20.44879117569872
 20
64.71943482674999
 11
7.024000000000001
 21
64.71943482674999
  0
LINE
  5
208
100
AcDbEntity
  8
Living Hinge
  6
ByLayer
 62
  256
370
   -1
100
AcDbLine
 10
20.44879117569872
 20
63.24535720143791
 11
15.45178665625052
 21
63.24535720143791
  0
LINE
  5
209
100
AcDbEntity
  8
Living Hinge
  6
ByLayer
 62
  256
370
   -1
100
AcDbLine
 10
20.44879117569872
 20
61.76928218096901
 11
7.024000000000001
 21
61.76928218096901
  0
LINE
  5
20A
100
AcDbEntity
  8
Living Hinge
  6
ByLayer
 62
  256
370
   -1
100
AcDbLine
 10
20.44879117569872
 20
60.29560403468781
 11
15.45178665625052
 21
60.29560403468781
  0
LINE
  5
20B
100
AcDbEntity
  8
Living Hinge
  6
ByLayer
 62
  256
370
   -1
100
AcDbLine
 10
20.44879117569872
 20
58.82192588840661
 11
7.024000000000001
 21
58.82192588840661
  0
LINE
  5
20C
100
AcDbEntity
  8
Living Hinge
  6
ByLayer
 62
  256
370
   -1
100
AcDbLine
 10
20.44879117569872
 20
57.3482477421253
 11
15.45178665625052
 21
57.3482477421253
  0
LINE
  5
20D
100
AcDbEntity
  8
Living Hinge
  6
ByLayer
 62
  256
370
   -1
100
AcDbLine
 10
20.44879117569872
 20
55.8721727216564
 11
7.024000000000001
 21
55.8721727216564
  0
LINE
  5
20E
100
AcDbEntity
  8
Living Hinge
  6
ByLayer
 62
  256
370
   -1
100
AcDbLine
 10
20.44879117569872
 20
54.39849457537511
 11
15.45178665625052
 21
54.39849457537511
  0
LINE
  5
20F
100
AcDbEntity
  8
Living Hinge
  6
ByLayer
 62
  256
370
   -1
100
AcDbLine
 10
20.44879117569872
 20
52.92481642909391
 11
7.024000000000001
 21
52.92481642909391
  0
LINE
  5
210
100
AcDbEntity
  8
Living Hinge
  6
ByLayer
 62
  256
370
   -1
100
AcDbLine
 10
20.44879117569872
 20
51.45113828281271
 11
15.45178665625052
 21
51.45113828281271
  0
LINE
  5
211
100
AcDbEntity
  8
Living Hinge
  6
ByLayer
 62
  256
370
   -1
100
AcDbLine
 10
20.44879117569872
 20
49.97546274137511
 11
7.024000000000001
 21
49.97546274137511
  0
LINE
  5
212
100
AcDbEntity
  8
Living Hinge
  6
ByLayer
 62
  256
370
   -1
100
AcDbLine
 10
20.44879117569872
 20
48.5009856370317
 11
15.45178665625052
 21
48.5009856370317
  0
LINE
  5
213
100
AcDbEntity
  8
Living Hinge
  6
ByLayer
 62
  256
370
   -1
100
AcDbLine
 10
20.44879117569872
 20
47.02730749075039
 11
7.024000000000001
 21
47.02730749075039
  0
LWPOLYLINE
  5
214
100
AcDbEntity
  8
Bemassung
  6
ByLayer
 62
  256
370
   -1
100
AcDbPolyline
 90
    4
 70
    1
 43
0
 10
-260
 20
30
 10
70
 20
30
 10
70
 20
270
 10
-260
 20
270
  0
DIMENSION
  5
215
100
AcDbEntity
  8
Bemassung
  6
ByLayer
 62
  256
370
   -1
100
AcDbDimension
  2
*D1
 10
70
 20
260
 30
0
 11
-95
 21
261.875
 31
0
 70
   33
 71
    5
 72
    0
  3
Standard
 53
0
210
0
220
0
230
1
100
AcDbAlignedDimension
 13
-260
 23
270
 33
0
 14
70
 24
270
 34
0
  0
LINE
  5
216
100
AcDbEntity
  8
Deckelseiten
  6
ByLayer
 62
  256
370
   -1
100
AcDbLine
 10
-21.01208050696298
 20
195.2209439678409
 11
-19.3712482303644
 21
191.6828993714252
  0
LINE
  5
217
100
AcDbEntity
  8
Deckelseiten
  6
ByLayer
 62
  256
370
   -1
100
AcDbLine
 10
39.01207931185706
 20
195.2209444510955
 11
37.37124706235655
 21
191.68289991311
  0
LINE
  5
218
100
AcDbEntity
  8
Deckelseiten
  6
ByLayer
 62
  256
370
   -1
100
AcDbLine
 10
40.99999999999983
 20
190.0000000000001
 11
37.37124706235653
 21
191.68289991311
  0
LINE
  5
219
100
AcDbEntity
  8
Deckelseiten
  6
ByLayer
 62
  256
370
   -1
100
AcDbLine
 10
-19.37124823036436
 20
191.6828993714252
 11
-23.00000116800769
 21
189.9999994583153
  0
ARC
  5
21A
100
AcDbEntity
  8
Deckelseiten
  6
ByLayer
 62
  256
370
   -1
100
AcDbCircle
 10
9
 20
121
 40
80.05918747922567
100
AcDbArc
 50
67.98349654445734
 51
112.0165043781195
  0
LINE
  5
21B
100
AcDbEntity
  8
Deckelseiten
  6
ByLayer
 62
  256
370
   -1
100
AcDbLine
 10
7
 20
190
 11
7
 21
194
  0
LINE
  5
21C
100
AcDbEntity
  8
Deckelseiten
  6
ByLayer
 62
  256
370
   -1
100
AcDbLine
 10
7
 20
194
 11
11
 21
194
  0
LINE
  5
21D
100
AcDbEntity
  8
Deckelseiten
  6
ByLayer
 62
  256
370
   -1
100
AcDbLine
 10
11
 20
194
 11
11
 21
190
  0
LINE
  5
21E
100
AcDbEntity
  8
Deckelseiten
  6
ByLayer
 62
  256
370
   -1
100
AcDbLine
 10
45
 20
203
 11
45
 21
195
  0
LINE
  5
21F
100
AcDbEntity
  8
Deckelseiten
  6
ByLayer
 62
  256
370
   -1
100
AcDbLine
 10
45
 20
195
 11
49
 21
195
  0
LINE
  5
220
100
AcDbEntity
  8
Deckelseiten
  6
ByLayer
 62
  256
370
   -1
100
AcDbLine
 10
49
 20
195
 11
49
 21
203
  0
LINE
  5
221
100
AcDbEntity
  8
Deckelseiten
  6
ByLayer
 62
  256
370
   -1
100
AcDbLine
 10
49
 20
203
 11
45
 21
203
  0
LINE
  5
222
100
AcDbEntity
  8
Deckelseiten
  6
ByLayer
 62
  256
370
   -1
100
AcDbLine
 10
-23
 20
190
 11
7
 21
190
  0
LINE
  5
223
100
AcDbEntity
  8
Deckelseiten
  6
ByLayer
 62
  256
370
   -1
100
AcDbLine
 10
11
 20
190
 11
41
 21
190
  0
LINE
  5
224
100
AcDbEntity
  8
Deckelseiten
  6
ByLayer
 62
  256
370
   -1
100
AcDbLine
 10
45.00000116800769
 20
227.0000005416847
 11
45.00000116800769
 21
219.0000005416847
  0
LINE
  5
225
100
AcDbEntity
  8
Deckelseiten
  6
ByLayer
 62
  256
370
   -1
100
AcDbLine
 10
45.00000116800769
 20
219.0000005416847
 11
49.00000116800769
 21
219.0000005416847
  0
LINE
  5
226
100
AcDbEntity
  8
Deckelseiten
  6
ByLayer
 62
  256
370
   -1
100
AcDbLine
 10
49.00000116800769
 20
219.0000005416847
 11
49.00000116800769
 21
227.0000005416847
  0
LINE
  5
227
100
AcDbEntity
  8
Deckelseiten
  6
ByLayer
 62
  256
370
   -1
100
AcDbLine
 10
49.00000116800769
 20
227.0000005416847
 11
45.00000116800769
 21
227.0000005416847
  0
LINE
  5
228
100
AcDbEntity
  8
Deckelseiten
  6
ByLayer
 62
  256
370
   -1
100
AcDbLine
 10
-21.0120793389553
 20
207.2209445095256
 11
-19.37124706235672
 21
203.6828999131099
  0
LINE
  5
229
100
AcDbEntity
  8
Deckelseiten
  6
ByLayer
 62
  256
370
   -1
100
AcDbLine
 10
39.01208047986475
 20
207.2209449927802
 11
37.37124823036424
 21
203.6829004547947
  0
LINE
  5
22A
100
AcDbEntity
  8
Deckelseiten
  6
ByLayer
 62
  256
370
   -1
100
AcDbLine
 10
41.00000116800751
 20
202.0000005416848
 11
37.37124823036422
 21
203.6829004547947
  0
LINE
  5
22B
100
AcDbEntity
  8
Deckelseiten
  6
ByLayer
 62
  256
370
   -1
100
AcDbLine
 10
-19.37124706235667
 20
203.6828999131099
 11
-23
 21
202
  0
ARC
  5
22C
100
AcDbEntity
  8
Deckelseiten
  6
ByLayer
 62
  256
370
   -1
100
AcDbCircle
 10
9.000001168007685
 20
133.0000005416847
 40
80.05918747922567
100
AcDbArc
 50
67.98349654445734
 51
112.0165043781195
  0
LINE
  5
22D
100
AcDbEntity
  8
Deckelseiten
  6
ByLayer
 62
  256
370
   -1
100
AcDbLine
 10
7.000001168007685
 20
202.0000005416847
 11
7.000001168007685
 21
206.0000005416847
  0
LINE
  5
22E
100
AcDbEntity
  8
Deckelseiten
  6
ByLayer
 62
  256
370
   -1
100
AcDbLine
 10
7.000001168007685
 20
206.0000005416847
 11
11.00000116800769
 21
206.0000005416847
  0
LINE
  5
22F
100
AcDbEntity
  8
Deckelseiten
  6
ByLayer
 62
  256
370
   -1
100
AcDbLine
 10
11.00000116800769
 20
206.0000005416847
 11
11.00000116800769
 21
202.0000005416847
  0
LINE
  5
230
100
AcDbEntity
  8
Deckelseiten
  6
ByLayer
 62
  256
370
   -1
100
AcDbLine
 10
-22.99999883199231
 20
202.0000005416847
 11
7.000001168007685
 21
202.0000005416847
  0
LINE
  5
231
100
AcDbEntity
  8
Deckelseiten
  6
ByLayer
 62
  256
370
   -1
100
AcDbLine
 10
11.00000116800769
 20
202.0000005416847
 11
41.00000116800769
 21
202.0000005416847
  0
ARC
  5
232
100
AcDbEntity
  8
Deckelseiten
  6
ByLayer
 62
  256
370
   -1
100
AcDbCircle
 10
9.000001168007689
 20
149.0000005416847
 40
76.05918747922567
100
AcDbArc
 50
65.11963314081829
 51
114.8803668591817
  0
LINE
  5
233
100
AcDbEntity
  8
Deckelseiten
  6
ByLayer
 62
  256
370
   -1
100
AcDbLine
 10
7
 20
218
 11
7
 21
222
  0
LINE
  5
234
100
AcDbEntity
  8
Deckelseiten
  6
ByLayer
 62
  256
370
   -1
100
AcDbLine
 10
7
 20
222
 11
11
 21
222
  0
LINE
  5
235
100
AcDbEntity
  8
Deckelseiten
  6
ByLayer
 62
  256
370
   -1
100
AcDbLine
 10
11
 20
222
 11
11
 21
218
  0
LINE
  5
236
100
AcDbEntity
  8
Deckelseiten
  6
ByLayer
 62
  256
370
   -1
100
AcDbLine
 10
-22.99999883199232
 20
218.0000005416847
 11
-19
 21
218
  0
LINE
  5
237
100
AcDbEntity
  8
Deckelseiten
  6
ByLayer
 62
  256
370
   -1
100
AcDbLine
 10
-19
 20
218
 11
-19
 21
215
  0
LINE
  5
238
100
AcDbEntity
  8
Deckelseiten
  6
ByLayer
 62
  256
370
   -1
100
AcDbLine
 10
-19
 20
215
 11
37
 21
215
  0
LINE
  5
239
100
AcDbEntity
  8
Deckelseiten
  6
ByLayer
 62
  256
370
   -1
100
AcDbLine
 10
37
 20
215
 11
37
 21
218
  0
LINE
  5
23A
100
AcDbEntity
  8
Deckelseiten
  6
ByLayer
 62
  256
370
   -1
100
AcDbLine
 10
37
 20
218
 11
41
 21
218
  0
LINE
  5
23B
100
AcDbEntity
  8
Deckelseiten
  6
ByLayer
 62
  256
370
   -1
100
AcDbLine
 10
7
 20
218
 11
11
 21
218
  0
ARC
  5
23C
100
AcDbEntity
  8
Deckelseiten
  6
ByLayer
 62
  256
370
   -1
100
AcDbCircle
 10
9.000001168007689
 20
160.0000005416847
 40
76.05918747922567
100
AcDbArc
 50
65.11963314081829
 51
114.8803668591817
  0
LINE
  5
23D
100
AcDbEntity
  8
Deckelseiten
  6
ByLayer
 62
  256
370
   -1
100
AcDbLine
 10
7
 20
229
 11
7
 21
233
  0
LINE
  5
23E
100
AcDbEntity
  8
Deckelseiten
  6
ByLayer
 62
  256
370
   -1
100
AcDbLine
 10
7
 20
233
 11
11
 21
233
  0
LINE
  5
23F
100
AcDbEntity
  8
Deckelseiten
  6
ByLayer
 62
  256
370
   -1
100
AcDbLine
 10
11
 20
233
 11
11
 21
229
  0
LINE
  5
240
100
AcDbEntity
  8
Deckelseiten
  6
ByLayer
 62
  256
370
   -1
100
AcDbLine
 10
-22.99999883199232
 20
229.0000005416847
 11
-19
 21
229
  0
LINE
  5
241
100
AcDbEntity
  8
Deckelseiten
  6
ByLayer
 62
  256
370
   -1
100
AcDbLine
 10
-19
 20
229
 11
-19
 21
226
  0
LINE
  5
242
100
AcDbEntity
  8
Deckelseiten
  6
ByLayer
 62
  256
370
   -1
100
AcDbLine
 10
-19
 20
226
 11
37
 21
226
  0
LINE
  5
243
100
AcDbEntity
  8
Deckelseiten
  6
ByLayer
 62
  256
370
   -1
100
AcDbLine
 10
37
 20
226
 11
37
 21
229
  0
LINE
  5
244
100
AcDbEntity
  8
Deckelseiten
  6
ByLayer
 62
  256
370
   -1
100
AcDbLine
 10
37
 20
229
 11
41
 21
229
  0
LINE
  5
245
100
AcDbEntity
  8
Deckelseiten
  6
ByLayer
 62
  256
370
   -1
100
AcDbLine
 10
7
 20
229
 11
11
 21
229
  0
LINE
  5
246
100
AcDbEntity
  8
Boden
  6
ByLayer
 62
  256
370
   -1
100
AcDbLine
 10
-173
 20
150
 11
-174
 21
150
  0
LINE
  5
247
100
AcDbEntity
  8
Boden
  6
ByLayer
 62
  256
370
   -1
100
AcDbLine
 10
-174
 20
150
 11
-174
 21
140
  0
LINE
  5
248
100
AcDbEntity
  8
Boden
  6
ByLayer
 62
  256
370
   -1
100
AcDbLine
 10
-174
 20
140
 11
-173
 21
140
  0
LINE
  5
249
100
AcDbEntity
  8
Boden
  6
ByLayer
 62
  256
370
   -1
100
AcDbLine
 10
-37
 20
150
 11
-36
 21
150
  0
LINE
  5
24A
100
AcDbEntity
  8
Boden
  6
ByLayer
 62
  256
370
   -1
100
AcDbLine
 10
-36
 20
150
 11
-36
 21
140
  0
LINE
  5
24B
100
AcDbEntity
  8
Boden
  6
ByLayer
 62
  256
370
   -1
100
AcDbLine
 10
-36
 20
140
 11
-37
 21
140
  0
LINE
  5
24C
100
AcDbEntity
  8
Boden
  6
ByLayer
 62
  256
370
   -1
100
AcDbLine
 10
-170
 20
150
 11
-169
 21
150
  0
LINE
  5
24D
100
AcDbEntity
  8
Boden
  6
ByLayer
 62
  256
370
   -1
100
AcDbLine
 10
-169
 20
150
 11
-169
 21
173
  0
LINE
  5
24E
100
AcDbEntity
  8
Boden
  6
ByLayer
 62
  256
370
   -1
100
AcDbLine
 10
-170
 20
140
 11
-169
 21
140
  0
LINE
  5
24F
100
AcDbEntity
  8
Boden
  6
ByLayer
 62
  256
370
   -1
100
AcDbLine
 10
-169
 20
140
 11
-169
 21
117
  0
LINE
  5
250
100
AcDbEntity
  8
Boden
  6
ByLayer
 62
  256
370
   -1
100
AcDbLine
 10
-40
 20
150
 11
-41
 21
150
  0
LINE
  5
251
100
AcDbEntity
  8
Boden
  6
ByLayer
 62
  256
370
   -1
100
AcDbLine
 10
-41
 20
150
 11
-41
 21
173
  0
LINE
  5
252
100
AcDbEntity
  8
Boden
  6
ByLayer
 62
  256
370
   -1
100
AcDbLine
 10
-40
 20
140
 11
-41
 21
140
  0
LINE
  5
253
100
AcDbEntity
  8
Boden
  6
ByLayer
 62
  256
370
   -1
100
AcDbLine
 10
-41
 20
140
 11
-41
 21
117
  0
LINE
  5
254
100
AcDbEntity
  8
Boden
  6
ByLayer
 62
  256
370
   -1
100
AcDbLine
 10
-169
 20
173
 11
-41
 21
173
  0
LINE
  5
255
100
AcDbEntity
  8
Boden
  6
ByLayer
 62
  256
370
   -1
100
AcDbLine
 10
-169
 20
117
 11
-41
 21
117
  0
ENDSEC
  0
SECTION
  2
OBJECTS
  0
DICTIONARY
  5
C
330
0
100
AcDbDictionary
281
    1
  3
ACAD_GROUP
350
D
  0
DICTIONARY
  5
D
330
C
100
AcDbDictionary
281
    1
  0
ENDSEC
  0
EOF
